Chat
Users Online
+ 12 Guests online in the last 24 hours.

Welcome to our newest member, CarlospeR
Ads
Torrent name: Flight Crew 2016 720p Esub BluRay 5.1 Audios English Hindi Russian GOPISAHI
File size: 948.07 MB
Seeds: 15
Leechs: 0
Categories: Apps
Torrent hash: 10cf3937bd7e5e7897a1a874f2450b9746d5e947
Social Share:
Uploader: gopisahi
Verified torrent:
    - http://ipv4.tracker.harry.lu/announce
    - http://ipv4.tracker.harry.lu:80/announce
    - http://163.172.180.68:80/announce
    - http://t.nyaatracker.com/announce
    - http://tracker.devil-torrents.pl:80/announce
    - http://tracker.devil-torrents.pl/announce
    - http://open.kickasstracker.com/announce
    - http://163.172.180.68/announce
    - http://t.nyaatracker.com:80/announce
    - http://retracker.mgts.by:80/announce
    - http://45.33.11.224/announce
    - http://tracker.torrentyorg.pl:80/announce
    - http://pt.lax.mx:80/announce
    - udp://tracker.coppersurfer.tk:6969/announce
    - udp://tracker.pirateparty.gr:6969/announce
Download Flight Crew 2016 720p Esub BluRay 5.1 Audios English Hindi Russian GOPISAHI
Download .torrent   Magnet Link
Torrent detail

Flight Crew 2016 720p Esub BluRay 5.1 Audios English Hindi Russian GOPISAHI

[center][img]https://i.imgur.com/yrXgPYj.jpg[/img]
Format                         : Matroska
Format version                 : Version 4 / Version 2
File size                      : 948 MiB
Duration                       : 2 h 17 min
Overall bit rate               : 966 kb/s
Movie name                     : Flight Crew 2016 

Video
Format                         : AVC
Codec ID                       : V_MPEG4/ISO/AVC
Duration                       : 2 h 17 min
Bit rate                       : 700 kb/s
Width                          : 1 280 pixels
Height                         : 544 pixels
Display aspect ratio           : 2.35:1
Frame rate mode                : Constant
Frame rate                     : 24.000 FPS
Stream size                    : 687 MiB (72%)
Writing library                : x264 

Audio #1
Format                         : AAC
Duration                       : 2 h 17 min
Bit rate                       : 88.4 kb/s
Channel(s)                     : 6 channels
Channel positions              : Front: L C R, Side: L R, LFE
Sampling rate                  : 44.1 kHz
Frame rate                     : 43.066 FPS (1024 SPF)
Stream size                    : 86.8 MiB (9%)
Language                       : English

Audio #2
Format                         : AAC
Duration                       : 2 h 17 min
Bit rate                       : 90.5 kb/s
Channel(s)                     : 6 channels
Channel positions              : Front: L C R, Side: L R, LFE
Sampling rate                  : 44.1 kHz
Frame rate                     : 43.066 FPS (1024 SPF)
Stream size                    : 88.8 MiB (9%)
Language                       : Hindi

Audio #3
Format                         : AAC
Duration                       : 2 h 17 min
Bit rate                       : 83.8 kb/s
Channel(s)                     : 6 channels
Channel positions              : Front: L C R, Side: L R, LFE
Sampling rate                  : 44.1 kHz
Frame rate                     : 43.066 FPS (1024 SPF)
Stream size                    : 82.2 MiB (9%)
Language                       : Russian

Text
ID                             : 5
English
[img]https://i.imgur.com/M3iJOt5.jpg[/img]
[img]https://i.imgur.com/EPdKUf9.jpg[/img]
[img]https://i.imgur.com/l2xn50R.jpg[/img][/center]

Files list

- Flight Crew 2016 720p Esub BluRay 5.1 Audios English Hindi Russian GOPISAHI.mkv File size : 948.07 MB

Disqus