Chat
Users Online
+ 12 Guests online in the last 24 hours.

Welcome to our newest member, CarlospeR
Ads
Torrent name: USS Indianapolis: Men of Courage - USS Indianapolis (2016).H264.italian.english.Ac3-5.1.sub.ita.MIRC
File size: 1.65 GB
Seeds: 8
Leechs: 168
Categories: Movies SD
Torrent hash: 8231e18f9b26dc6602d7544cfc40998b7bac3aca
Social Share:
Uploader: robbyrs
Verified torrent:
    - udp://tracker.coppersurfer.tk:6969/announce
    - udp://tracker.opentrackr.org:1337/announce
    - udp://tracker.leechers-paradise.org:6969/announce
    - udp://glotorrents.pw:6969/announce
    - udp://p4p.arenabg.com:1337/announce
    - udp://p4p.arenabg.ch:1337/announce
    - udp://eddie4.nl:6969/announce
    - udp://tracker.leechers-paradise.org:6969/announce
    - udp://coppersurfer.tk:6969/announce
Download USS Indianapolis: Men of Courage - USS Indianapolis (2016).H264.italian.english.Ac3-5.1.sub.ita.MIRC
Download .torrent   Magnet Link
Torrent detail

USS Indianapolis: Men of Courage - USS Indianapolis (2016).H264.italian.english.Ac3-5.1.sub.ita.MIRC

USS Indianapolis: Men of Courage - USS Indianapolis (2016).H264.italian.english.Ac3-5.1.sub.ita.MIRCrew



[color=red][b][img]https://worldimages.gallery/images/2017/11/10/Vo5Du.png[/img]
[u]NO FOUND ONLY ORIGINAL RELEASE[/u]

[img]https://worldimages.gallery/images/2017/09/02/4716a3153385da57f9bf0ad75d1cdd7a.gif[/img]

My release is always in double track audio italian and Original audio
for select it use VLC or dvd player home
not use wmp

USS Indianapolis - USS Indianapolis: Men of Courage (2016)

[img]https://worldimages.gallery/images/2017/11/10/VozX1.png[/img]

[URL=https://www.imdb.com/title/tt2032572/][IMG]https://www.userlogos.org/files/logos/Sucka/imdb_new.png[/IMG][/URL]

[img]https://i.imgur.com/fGu1rKv.png[/img]


    DATA USCITA: 19 luglio 2017
    GENERE: Azione, Guerra
    ANNO: 2016
    REGIA: Mario Van Peebles
    
    PAESE: USA
    DURATA: 128 Min
    DISTRIBUZIONE: M2 Pictures


[img]https://i.imgur.com/W7kBqiE.png[/img]

Nicolas Cage, Tom Sizemore, Thomas Jane, Matt Lanter, Weronika Rosati, Brian Presley, Emily Tennant, Callard Harris, Johnny Wactor

[img]https://i.imgur.com/bFK3ggF.png[/img]

Durante la Seconda Guerra Mondiale la USS Indianapolis si distingue come uno degli incrociatori più veloci e temuti della marina americana e sotto il comando del valoroso capitano Charles McVay (Nicolas Cage) il suo equipaggio combatte con coraggio le più importanti battaglie sul fronte del Pacifico..................

[img]https://i.imgur.com/48xHWWH.png[/img]

The harrowing true story of the crew of the USS Indianapolis, who were stranded in the Philippine Sea for five days after delivering the atomic weapons that would eventually end WWII. As they awaited rescue, they endured extreme thirst, hunger, and relentless shark attacks

[img]https://i.imgur.com/K8bfNTy.png[/img]

[img]https://worldimages.gallery/images/2017/11/10/VoOaH.png[/img]

[img]https://worldimages.gallery/images/2017/11/10/Vo40O.png[/img]

[img]https://worldimages.gallery/images/2017/11/10/VouBm.png[/img]

[img]https://worldimages.gallery/images/2017/11/10/VoxJ3.png[/img]



[img]https://i.imgur.com/aVrMohH.png[/img]



General
Unique ID                                : 241466431084856276173462971937324889232 (0xB5A8BE367F54DB7E89A3F176844D7490)
Complete name                            : USS Indianapolis (2016).H264.ita.eng.sub.ita.MIRCrewUSS Indianapolis (2016).H264.ita.eng.sub.ita.MIRCrew.mkv
Format                                   : Matroska
Format version                           : Version 2
File size                                : 1.65 GiB
Duration                                 : 1h 51mn
Overall bit rate                         : 2 114 Kbps
Movie name                               : USS Indianapolis (2016).H264.ita.eng.sub.ita.MIRCrew
Encoded date                             : UTC 2017-11-09T15:19:05Z
Writing application                      : mkvmerge v5.4.0 ('Piper') built on Mar 10 2012 13:34:39
Writing library                          : Lavf55.12.0

Video
ID                                       : 1
Format                                   : AVC
Format/Info                              : Advanced Video Codec
Format profile                           : [email protected]
Format settings, CABAC                   : Yes
Format settings, ReFrames                : 4 frames
Muxing mode                              : Header stripping
Codec ID                                 : V_MPEG4/ISO/AVC
Duration                                 : 1h 51mn
Bit rate                                 : 1 300 Kbps
Width                                    : 720 pixels
Height                                   : 300 pixels
Display aspect ratio                     : 2.40:1
Frame rate mode                          : Variable
Frame rate                               : 24.000 fps
Color space                              : YUV
Chroma subsampling                       : 4:2:0
Bit depth                                : 8 bits
Scan type                                : Progressive
Bits/(Pixel*Frame)                       : 0.251
Stream size                              : 992 MiB (59%)
Title                                    : USS Indianapolis (2016).H264.ita.eng.sub.ita.MIRCrew
Writing library                          : x264 core 142 r2479 dd79a61
Encoding settings                        : cabac=1 / ref=1 / deblock=1:-1:-1 / analyse=0x1:0x111 / me=hex / subme=2 / psy=1 / psy_rd=1.00:0.15 / mixed_ref=0 / me_range=16 / chroma_me=1 / trellis=0 / 8x8dct=0 / cqm=0 / deadzone=21,11 / fast_pskip=1 / chroma_qp_offset=0 / threads=3 / lookahead_threads=1 / sliced_threads=0 / nr=0 / decimate=1 / interlaced=0 / bluray_compat=0 / constrained_intra=0 / bframes=3 / b_pyramid=2 / b_adapt=1 / b_bias=0 / direct=1 / weightb=1 / open_gop=0 / weightp=1 / keyint=240 / keyint_min=24 / scenecut=40 / intra_refresh=0 / rc_lookahead=10 / rc=abr / mbtree=1 / bitrate=1300 / ratetol=1.0 / qcomp=0.60 / qpmin=0 / qpmax=69 / qpstep=4 / vbv_maxrate=20000 / vbv_bufsize=25000 / nal_hrd=none / filler=0 / ip_ratio=1.40 / aq=1:1.00
Language                                 : Italian
Default                                  : Yes
Forced                                   : No
Color primaries                          : BT.709-5, BT.1361, IEC 61966-2-4, SMPTE RP177
Transfer characteristics                 : BT.709-5, BT.1361
Matrix coefficients                      : BT.709-5, BT.1361, IEC 61966-2-4 709, SMPTE RP177

Audio #1
ID                                       : 2
Format                                   : AC-3
Format/Info                              : Audio Coding 3
Mode extension                           : CM (complete main)
Muxing mode                              : Header stripping
Codec ID                                 : A_AC3
Duration                                 : 1h 51mn
Bit rate mode                            : Constant
Bit rate                                 : 448 Kbps
Channel(s)                               : 6 channels
Channel positions                        : Front: L C R, Side: L R, LFE
Sampling rate                            : 48.0 KHz
Bit depth                                : 16 bits
Compression mode                         : Lossy
Delay relative to video                  : -5ms
Stream size                              : 358 MiB (21%)
Title                                    : Ita Ac3 5.1
Language                                 : Italian
Default                                  : Yes
Forced                                   : No

Audio #2
ID                                       : 3
Format                                   : AC-3
Format/Info                              : Audio Coding 3
Mode extension                           : CM (complete main)
Muxing mode                              : Header stripping
Codec ID                                 : A_AC3
Duration                                 : 1h 51mn
Bit rate mode                            : Constant
Bit rate                                 : 384 Kbps
Channel(s)                               : 6 channels
Channel positions                        : Front: L C R, Side: L R, LFE
Sampling rate                            : 48.0 KHz
Bit depth                                : 16 bits
Compression mode                         : Lossy
Delay relative to video                  : -5ms
Stream size                              : 307 MiB (18%)
Title                                    : Eng Ac3 5.1
Language                                 : English
Default                                  : No
Forced                                   : No

Text #1
ID                                       : 4
Format                                   : ASS
Codec ID                                 : S_TEXT/ASS
Codec ID/Info                            : Advanced Sub Station Alpha
Compression mode                         : Lossless
Language                                 : Italian
Default                                  : No
Forced                                   : No

Text #2
ID                                       : 5
Format                                   : ASS
Codec ID                                 : S_TEXT/ASS
Codec ID/Info                            : Advanced Sub Station Alpha
Compression mode                         : Lossless
Language                                 : Italian
Default                                  : No
Forced                                   : No

Menu
00:00:00.000                             : :00:00:00.000
00:00:32.250                             : :00:00:32.083
00:09:03.583                             : :00:09:03.458
00:15:56.416                             : :00:15:56.292
00:23:19.666                             : :00:23:19.542
00:28:21.291                             : :00:28:21.167
00:32:35.541                             : :00:32:35.417
00:39:28.166                             : :00:39:28.083
00:45:37.166                             : :00:45:37.083
00:50:11.083                             : :00:50:10.917
00:56:50.666                             : :00:56:50.542
01:03:45.000                             : :01:03:44.875
01:12:04.666                             : :01:12:04.458
01:17:22.625                             : :01:17:22.417
01:26:09.583                             : :01:26:09.458
01:35:23.875                             : :01:35:23.708
01:42:05.791                             : :01:42:05.625





[/color][/b]

 

Files list

- USS Indianapolis (2016).H264.ita.eng.sub.ita.MIRCrew.ita.srt File size : 75.54 KB
- USS Indianapolis (2016).H264.ita.eng.sub.ita.MIRCrew.mkv File size : 1.65 GB
- USS Indianapolis (2016).H264.ita.eng.sub.ita.MIRCrew.srt File size : 7.46 KB

Disqus