Chat
Users Online
+ 12 Guests online in the last 24 hours.

Welcome to our newest member, CarlospeR
Ads
Torrent name: Rio 2011 720p Esub BluRay Dual Audio English Hindi GOPISAHI
File size: 674.84 MB
Seeds: 15
Leechs: 0
Categories: Movies HD
Torrent hash: d208faed8208f81c7afb3c425fcfb975e13edf20
Social Share:
Uploader: gopisahi
Verified torrent:
    - http://ipv4.tracker.harry.lu/announce
    - http://ipv4.tracker.harry.lu:80/announce
    - http://163.172.180.68:80/announce
    - http://t.nyaatracker.com/announce
    - http://tracker.devil-torrents.pl:80/announce
    - http://tracker.devil-torrents.pl/announce
    - http://open.kickasstracker.com/announce
    - http://163.172.180.68/announce
    - http://t.nyaatracker.com:80/announce
    - http://retracker.mgts.by:80/announce
    - http://45.33.11.224/announce
    - http://tracker.torrentyorg.pl:80/announce
    - http://pt.lax.mx:80/announce
    - udp://tracker.coppersurfer.tk:6969/announce
    - udp://tracker.pirateparty.gr:6969/announce
Download Rio 2011 720p Esub BluRay Dual Audio English Hindi GOPISAHI
Download .torrent   Magnet Link
Torrent detail

Rio 2011 720p Esub BluRay Dual Audio English Hindi GOPISAHI

[center][img]https://lookimg.com/images/2017/11/13/OJd9t.jpg[/img]
Format                         : Matroska
Format version                 : Version 4 / Version 2
File size                      : 675 MiB
Duration                       : 1 h 35 min
Overall bit rate               : 983 kb/s
Movie name                     : Rio 2011 

Video
Format                         : AVC
Codec ID                       : V_MPEG4/ISO/AVC
Duration                       : 1 h 35 min
Bit rate                       : 799 kb/s
Width                          : 1 280 pixels
Height                         : 528 pixels
Display aspect ratio           : 2.40:1
Frame rate mode                : Constant
Frame rate                     : 23.976 (24000/1001) FPS
Stream size                    : 548 MiB (81%)
Writing library                : x264

Audio #1
Format                         : AAC
Duration                       : 1 h 35 min
Bit rate                       : 90.4 kb/s
Channel(s)                     : 6 channels
Channel positions              : Front: L C R, Side: L R, LFE
Sampling rate                  : 44.1 kHz
Frame rate                     : 43.066 FPS (1024 SPF)
Stream size                    : 62.0 MiB (9%)
Language                       : English

Audio #2
Format                         : AAC
Duration                       : 1 h 35 min
Bit rate                       : 91.0 kb/s
Channel(s)                     : 6 channels
Channel positions              : Front: L C R, Side: L R, LFE
Sampling rate                  : 44.1 kHz
Frame rate                     : 43.066 FPS (1024 SPF)
Stream size                    : 62.5 MiB (9%)
Language                       : Hindi


Text
Language                       : English
[img]https://lookimg.com/images/2017/11/13/OJfGd.jpg[/img]
[img]https://lookimg.com/images/2017/11/13/OJhE9.jpg[/img]
[img]https://lookimg.com/images/2017/11/13/OJ8UE.jpg[/img][/center]

Files list

- Rio 2011 720p Esub BluRay Dual Audio English Hindi GOPISAHI.mkv File size : 674.84 MB

Disqus