Chat
Users Online
+ 10 Guests online in the last 24 hours.

Welcome to our newest member, Step67
Ads
Torrent name: Dunkirk (2017).H264.italian.english.Ac3-5.1.sub.ita.eng.MIRCrew
File size: 1.62 GB
Seeds: 7
Leechs: 12
Categories: Apps
Torrent hash: 1c3a5e9c1e26f1a9a25cc1cedf229a17da07ff88
Social Share:
Uploader: robbyrs
Verified torrent:
    - udp://tracker.coppersurfer.tk:6969/announce
    - udp://tracker.opentrackr.org:1337/announce
    - udp://tracker.pirateparty.gr:6969/announce
    - udp://tracker.zer0day.to:1337/announce
    - udp://p4p.arenabg.com:1337/announce
    - udp://p4p.arenabg.ch:1337/announce
    - udp://eddie4.nl:6969/announce
    - udp://tracker.leechers-paradise.org:6969/announce
Download Dunkirk (2017).H264.italian.english.Ac3-5.1.sub.ita.eng.MIRCrew
Download .torrent   Magnet Link
Torrent detail

Dunkirk (2017).H264.italian.english.Ac3-5.1.sub.ita.eng.MIRCrew

Dunkirk (2017).H264.italian.english.Ac3-5.1.sub.ita.eng.MIRCrew

[color=red][img]https://worldimages.gallery/images/2017/12/05/Vg6zm.png[/img]
NO FOUND ONLY ORIGINAL RELEASE

[img]https://worldimages.gallery/images/2017/09/02/4716a3153385da57f9bf0ad75d1cdd7a.gif[/img]

My release is always in double track audio italian and Original audio
for select it use VLC or dvd player home
not use wmp

Dunkirk (2017)

[img]https://worldimages.gallery/images/2017/12/10/VtGQc.png[/img]

[URL=https://www.imdb.com/title/tt5013056/][IMG]https://www.userlogos.org/files/logos/Sucka/imdb_new.png[/IMG][/URL]

[img]https://i.imgur.com/fGu1rKv.png[/img]

Lingua originale    inglese
Paese di produzione    Regno Unito, Stati Uniti d'America, Paesi Bassi, Francia
Anno    2017
Durata    106 min
Rapporto    2.35:1
2.20:1 (70mm)
1.90:1 (IMAX Xenon)
1.43:1 (IMAX 70mm; IMAX Laser)
Genere    drammatico, guerra, storico
Regia    Christopher Nolan
Soggetto    Christopher Nolan
Sceneggiatura    Christopher Nolan
Produttore    Christopher Nolan, Emma Thomas
Produttore esecutivo    Jake Myers, Greg Silverman
Casa di produzione    Syncopy Inc., RatPac-Dune Entertainment, Warner Bros. Pictures
Distribuzione (Italia)    Warner Bros. Pictures
Fotografia    Hoyte Van Hoytema
Montaggio    Lee Smith
Effetti speciali    Paul Corbould, Ian Corbould, Charles-Axel Vollard, Andrew Jackson
Musiche    Hans Zimmer
Scenografia    Nathan Crowley
Costumi    Jeffrey Kurland

[img]https://i.imgur.com/W7kBqiE.png[/img]



    Fionn Whitehead: Tommy
    Tom Glynn-Carney: Peter
    Jack Lowden: Collins
    Harry Styles: Alex
    Aneurin Barnard: Gibson
    James D'Arcy: Colonnello Winnant
    Barry Keoghan: George Mills
    Kenneth Branagh: Comandante Bolton
    Cillian Murphy: soldato sotto shock
    Mark Rylance: Mr. Dawson
    Tom Hardy: Farrier



[img]https://i.imgur.com/bFK3ggF.png[/img]

Il film è strutturato lungo tre linee narrative, ognuna ambientata in un determinato arco temporale: la prima linea comincia sulla terraferma e copre un arco temporale di una settimana

[img]https://i.imgur.com/48xHWWH.png[/img]

Allied soldiers from Belgium, the British Empire and France are surrounded by the German Army, and evacuated during a fierce battle in World War II.

[img]https://i.imgur.com/K8bfNTy.png[/img]

[img]https://worldimages.gallery/images/2017/12/10/VtibO.png[/img]
[img]https://worldimages.gallery/images/2017/12/10/VttZm.png[/img]
[img]https://worldimages.gallery/images/2017/12/10/Vt3r3.png[/img]


[img]https://i.imgur.com/aVrMohH.png[/img]

[spoiler]
General
Unique ID                                : 92667815664361700681097049389431120303 (0x45B72C0F328DC3C95838597E5E39E1AF)
Complete name                            : Dunkirk (2017).H264.ita.eng.sub.ita.eng.MIRCrewDunkirk (2017).H264.ita.eng.sub.ita.eng.MIRCrew.mkv
Format                                   : Matroska
Format version                           : Version 2
File size                                : 1.62 GiB
Duration                                 : 1h 46mn
Overall bit rate                         : 2 179 Kbps
Movie name                               : MIRCrew
Encoded date                             : UTC 2017-12-10 11:42:13
Writing application                      : Lavf54.63.100
Writing library                          : Lavf54.63.100

Video
ID                                       : 1
Format                                   : AVC
Format/Info                              : Advanced Video Codec
Format profile                           : [email protected]
Format settings, CABAC                   : Yes
Format settings, ReFrames                : 2 frames
Codec ID                                 : V_MPEG4/ISO/AVC
Duration                                 : 1h 46mn
Bit rate                                 : 1 300 Kbps
Width                                    : 720 pixels
Height                                   : 404 pixels
Display aspect ratio                     : 16:9
Frame rate mode                          : Variable
Frame rate                               : 23.976 fps
Color space                              : YUV
Chroma subsampling                       : 4:2:0
Bit depth                                : 8 bits
Scan type                                : Progressive
Bits/(Pixel*Frame)                       : 0.186
Stream size                              : 945 MiB (57%)
Writing library                          : x264 core 130 r2273
Encoding settings                        : cabac=1 / ref=2 / deblock=1:0:0 / analyse=0x1:0x131 / me=hex / subme=7 / psy=1 / psy_rd=1.00:0.00 / mixed_ref=0 / me_range=16 / chroma_me=1 / trellis=1 / 8x8dct=0 / cqm=0 / deadzone=21,11 / fast_pskip=1 / chroma_qp_offset=-2 / threads=3 / lookahead_threads=1 / sliced_threads=0 / nr=0 / decimate=1 / interlaced=0 / bluray_compat=0 / constrained_intra=0 / bframes=3 / b_pyramid=0 / b_adapt=1 / b_bias=0 / direct=3 / weightb=1 / open_gop=0 / weightp=2 / keyint=230 / keyint_min=23 / scenecut=40 / intra_refresh=0 / rc_lookahead=40 / rc=abr / mbtree=1 / bitrate=1300 / ratetol=1.0 / qcomp=0.60 / qpmin=10 / qpmax=69 / qpstep=4 / vbv_maxrate=24000 / vbv_bufsize=24000 / nal_hrd=none / ip_ratio=1.40 / aq=1:1.00
Language                                 : Italian
Default                                  : Yes
Forced                                   : No
DURATION                                 : 01:46:38.225000000
NUMBER_OF_FRAMES                         : 153404
NUMBER_OF_BYTES                          : 8518925714
_STATISTICS_WRITING_APP                  : mkvmerge v15.0.0 ('Duel with the Devil') 64-bit
_STATISTICS_WRITING_DATE_UTC             : 2017-12-08 11:21:10
_STATISTICS_TAGS                         : BPS DURATION NUMBER_OF_FRAMES NUMBER_OF_BYTES

Audio #1
ID                                       : 2
Format                                   : AC-3
Format/Info                              : Audio Coding 3
Mode extension                           : CM (complete main)
Codec ID                                 : A_AC3
Duration                                 : 1h 46mn
Bit rate mode                            : Constant
Bit rate                                 : 448 Kbps
Channel(s)                               : 6 channels
Channel positions                        : Front: L C R, Side: L R, LFE
Sampling rate                            : 48.0 KHz
Bit depth                                : 16 bits
Compression mode                         : Lossy
Delay relative to video                  : 1mn 5s
Stream size                              : 342 MiB (21%)
Language                                 : Italian
Default                                  : No
Forced                                   : No
DURATION                                 : 01:46:38.304000000
NUMBER_OF_FRAMES                         : 199947
NUMBER_OF_BYTES                          : 511864320
_STATISTICS_WRITING_APP                  : mkvmerge v15.0.0 ('Duel with the Devil') 64-bit
_STATISTICS_WRITING_DATE_UTC             : 2017-12-08 11:21:10
_STATISTICS_TAGS                         : BPS DURATION NUMBER_OF_FRAMES NUMBER_OF_BYTES

Audio #2
ID                                       : 3
Format                                   : AC-3
Format/Info                              : Audio Coding 3
Mode extension                           : CM (complete main)
Codec ID                                 : A_AC3
Duration                                 : 1h 46mn
Bit rate mode                            : Constant
Bit rate                                 : 448 Kbps
Channel(s)                               : 6 channels
Channel positions                        : Front: L C R, Side: L R, LFE
Sampling rate                            : 48.0 KHz
Bit depth                                : 16 bits
Compression mode                         : Lossy
Delay relative to video                  : 1mn 5s
Stream size                              : 342 MiB (21%)
Language                                 : English
Default                                  : No
Forced                                   : No
DURATION                                 : 01:46:38.272000000
NUMBER_OF_FRAMES                         : 599838
NUMBER_OF_BYTES                          : 1206874828
_STATISTICS_WRITING_APP                  : mkvmerge v15.0.0 ('Duel with the Devil') 64-bit
_STATISTICS_WRITING_DATE_UTC             : 2017-12-08 11:21:10
_STATISTICS_TAGS                         : BPS DURATION NUMBER_OF_FRAMES NUMBER_OF_BYTES

Menu
00:00:00.000                             : :00:00:00.000
00:08:51.364                             : :00:08:51.364
00:20:13.754                             : :00:20:13.754
00:29:07.621                             : :00:29:07.621
00:42:35.261                             : :00:42:35.261
00:52:48.207                             : :00:52:48.207
01:04:32.827                             : :01:04:32.827
01:12:50.825                             : :01:12:50.825
01:25:55.025                             : :01:25:55.025
01:33:23.348                             : :01:33:23.348
01:39:13.906                             : :01:39:13.906


[/spoiler]


[/color]


Files list

- Dunkirk (2017).H264.ita.eng.sub.ita.eng.MIRCrew.eng.srt File size : 55.99 KB
- Dunkirk (2017).H264.ita.eng.sub.ita.eng.MIRCrew.ita.srt File size : 55.8 KB
- Dunkirk (2017).H264.ita.eng.sub.ita.eng.MIRCrew.mkv File size : 1.62 GB
- Dunkirk (2017).H264.ita.eng.sub.ita.eng.MIRCrew.srt File size : 1.25 KB

Disqus