Users Online
+ 10 Guests online in the last 24 hours.

Welcome to our newest member, ArthurDut
Torrent name: The.Florida.Project.2017.DVDScr.XVID.AC3.HQ.Hive-CM8
File size: 1.56 GB
Seeds: 497
Leechs: 413
Categories: Movies SD
Torrent hash: 2b43c2e24b0e8b84960cd0c902ceb30a1910282e
Social Share:
Uploader: roflcopter2110
Verified torrent:
    - udp://
    - udp://
    - udp://
    - udp://
    - udp://
    - udp://
    - udp://
    - udp://
    - udp://
    - udp://
    - udp://
    - udp://
Download The.Florida.Project.2017.DVDScr.XVID.AC3.HQ.Hive-CM8
Download .torrent   Magnet Link
Torrent detail



Thx Hive

CM8 Doing It Right The First Time

Source: a cool dude on the street

one more goodie
Don´t forget watching a scr is not like the real thing, you should still all go to the cinema and support the Producers, thx
We especially sharing this for the people who cant visit the cinema due to illness or because it is a limited release that doesnt make it to their country,
so that they also can experience some award nominations.

quality was nice, not much to do

We are still missing suburbicon,downsizing, hostiles and phantom thread, anyone want to share for the collection?
Don't post info public or on any blog its too risky, it has to be done safely and secure in private, and we have proven that we can do it.
Msg us [email protected] - we will respect your wishes
if you want to share with us in private it will stay private

Video: 720x304 @bitrate 1700 2pass
Audio: English Stereo
Sample: yes included

Complete name: The.Florida.Project.2017.DVDScr.XVID.AC3.HQ.Hive-CM8.avi
Format: AVI
Format/Info: Audio Video Interleave
File size: 1.55 GiB
Duration: 1h 51mn
Overall bit rate: 1 992 Kbps
Writing application: Nandub v1.0rc2
Writing library: Nandub build 1853/release

ID: 0
Format: MPEG-4 Visual
Format profile: Advanced [email protected]
Format settings, BVOP: 2
Format settings, QPel: Yes
Format settings, GMC: No warppoints
Format settings, Matrix: Default (H.263)
Muxing mode: Packed bitstream
Codec ID: XVID
Codec ID/Hint: XviD
Duration: 1h 51mn
Bit rate: 1 724 Kbps
Width: 720 pixels
Height: 304 pixels
Display aspect ratio: 2.35:1
Frame rate: 30.000 fps
Color space: YUV
Chroma subsampling: 4:2:0
Bit depth: 8 bits
Scan type: Progressive
Compression mode: Lossy
Bits/(Pixel*Frame): 0.263
Stream size: 1.34 GiB (87%)
Writing library: XviD 1.2.1 (UTC 2008-12-04)

ID: 1
Format: AC-3
Format/Info: Audio Coding 3
Mode extension: CM (complete main)
Format settings, Endianness: Big
Codec ID: 2000
Duration: 1h 51mn
Bit rate mode: Constant
Bit rate: 256 Kbps
Channel(s): 2 channels
Channel positions: Front: L R
Sampling rate: 48.0 KHz
Bit depth: 16 bits
Compression mode: Lossy
Delay relative to video: 28ms
Stream size: 204 MiB (13%)
Alignment: Split accross interleaves
Interleave, duration: 33 ms (1.00 video frame)
Interleave, preload duration: 500 ms

Set over one summer, the film follows precocious six-year-old Moonee as she courts mischief and adventure with her ragtag playmates and bonds with her rebellious but caring mother, all while living in the shadows of Disney World.

Cast overview, first billed only:
Brooklynn Prince... Moonee (as Brooklynn Kimberly Prince)
Christopher Rivera... Scooty
Aiden Malik... Dicky
Josie Olivo... Grandma Stacy
Valeria Cotto... Jancey
Edward Pagan... Dicky's Dad (as Edward 'Punky' Pagan)
Bria Vinaite... Halley
Patti Wiley... Amber
Jasineia Ramos... Luci
Willem Dafoe... Bobby
Rosa Medina Perez... Bertha
Mela Murder... Ashley
Krystal Nicole Watts... Case Worker (as Krystal Gordon)
Bronwyn Valley... Twistee Treat Girl
Kelly Fitzgerald... Twistee Treat Girl's Mom



Files list

- sample.avi File size : 8.27 MB
- The.Florida.Project.2017.DVDScr.XVID.AC3.HQ.Hive-CM8.avi File size : 1.55 GB