Users Online
+ 9 Guests online in the last 24 hours.

Welcome to our newest member, Williscit
Torrent name: The.Disaster.Artist.2017.DVDScr.XVID.AC3.HQ.Hive-CM8
File size: 1.42 GB
Seeds: 1278
Leechs: 663
Categories: Movies SD
Torrent hash: 16897871ea11886bc514344ddc7d994e9ec270c1
Social Share:
Uploader: roflcopter2110
Verified torrent:
    - udp://
    - udp://
    - udp://
    - udp://
    - udp://
    - udp://
    - udp://
    - udp://
    - udp://
    - udp://
    - udp://
    - udp://
Download The.Disaster.Artist.2017.DVDScr.XVID.AC3.HQ.Hive-CM8
Download .torrent   Magnet Link
Torrent detail



Thx Hive

CM8 Doing It Right The First Time

Source: a cool dude on the street

one more goodie - happy new year already, we dont want to disturb the festivals tomorrow
Don´t forget watching a scr is not like the real thing, you should still all go to the cinema and support the Producers, thx
We especially sharing this for the people who cant visit the cinema due to illness or because it is a limited release that doesnt make it to their country,
so that they also can experience some award nominations.

quality was nice, not much to do

We are still missing suburbicon,downsizing, hostiles and phantom thread, anyone want to share for the collection?
Don't post info public or on any blog its too risky, it has to be done safely and secure in private, and we have proven that we can do it.
Msg us [email protected] - we will respect your wishes
if you want to share with us in private it will stay private

Video: 720x304 @bitrate 1600 2pass
Audio: English Stereo
Sample: yes included

Complete name: The.Disaster.Artist.2017.DVDScr.XVID.AC3.HQ.Hive-CM8.avi
Format: AVI
Format/Info: Audio Video Interleave
File size: 1.41 GiB
Duration: 1h 43mn
Overall bit rate: 1 944 Kbps
Writing application: Nandub v1.0rc2
Writing library: Nandub build 1853/release

ID: 0
Format: MPEG-4 Visual
Format profile: Advanced [email protected]
Format settings, BVOP: 2
Format settings, QPel: Yes
Format settings, GMC: No warppoints
Format settings, Matrix: Default (H.263)
Muxing mode: Packed bitstream
Codec ID: XVID
Codec ID/Hint: XviD
Duration: 1h 43mn
Bit rate: 1 676 Kbps
Width: 720 pixels
Height: 304 pixels
Display aspect ratio: 2.35:1
Frame rate: 30.000 fps
Color space: YUV
Chroma subsampling: 4:2:0
Bit depth: 8 bits
Scan type: Progressive
Compression mode: Lossy
Bits/(Pixel*Frame): 0.255
Stream size: 1.21 GiB (86%)
Writing library: XviD 1.2.1 (UTC 2008-12-04)

ID: 1
Format: AC-3
Format/Info: Audio Coding 3
Mode extension: CM (complete main)
Format settings, Endianness: Big
Codec ID: 2000
Duration: 1h 43mn
Bit rate mode: Constant
Bit rate: 256 Kbps
Channel(s): 2 channels
Channel positions: Front: L R
Sampling rate: 48.0 KHz
Bit depth: 16 bits
Compression mode: Lossy
Delay relative to video: 6ms
Stream size: 189 MiB (13%)
Alignment: Split accross interleaves
Interleave, duration: 33 ms (1.00 video frame)
Interleave, preload duration: 500 ms

When Greg Sestero, an aspiring film actor, meets the weird and mysterious Tommy Wiseau in an acting class, they form a unique friendship and travel to Hollywood to make their dreams come true.



Files list

- sample.avi File size : 11.16 MB
- The.Disaster.Artist.2017.DVDScr.XVID.AC3.HQ.Hive-CM8.avi File size : 1.41 GB