Chat
Users Online
+ 7 Guests online in the last 24 hours.

Welcome to our newest member, Nvxlfkz
Ads
Torrent name: It (2017).H264.italian.english.Ac3-5.1.sub.ita.NUita.eng.MIRCrew
File size: 1.94 GB
Seeds: 12
Leechs: 4
Categories: Movies SD
Torrent hash: 55a99d9c3e4832ef144d24c10196d9eca15521d2
Social Share:
Uploader: robbyrs
Verified torrent:
    - udp://tracker.coppersurfer.tk:6969/announce
    - udp://tracker.opentrackr.org:1337/announce
    - udp://tracker.pirateparty.gr:6969/announce
    - udp://tracker.zer0day.to:1337/announce
    - udp://p4p.arenabg.com:1337/announce
    - udp://p4p.arenabg.ch:1337/announce
    - udp://eddie4.nl:6969/announce
    - udp://tracker.leechers-paradise.org:6969/announce
    - udp://9.rarbg.me:2740/announce
    - udp://9.rarbg.to:2740/announce
    - udp://9.rarbg.com:2710/announce
    - udp://tracker.pirateparty.gr:6969/announce
Download It (2017).H264.italian.english.Ac3-5.1.sub.ita.NUita.eng.MIRCrew
Download .torrent   Magnet Link
Torrent detail

It (2017).H264.italian.english.Ac3-5.1.sub.ita.NUita.eng.MIRCrew

It (2017).H264.italian.english.Ac3-5.1.sub.ita.NUita.eng.MIRCrew

[color=red][img]https://worldimages.gallery/images/2017/12/05/Vg6zm.png[/img]
NO FOUND ONLY ORIGINAL RELEASE

[img]https://worldimages.gallery/images/2017/09/02/4716a3153385da57f9bf0ad75d1cdd7a.gif[/img]

My release is always in double track audio italian and Original audio
for select it use VLC or dvd player home
not use wmp

It (2017)

[img]https://worldimages.gallery/images/2017/12/30/6WqOG.png[/img]

[URL=https://www.imdb.com/title/tt1396484/][IMG]https://www.userlogos.org/files/logos/Sucka/imdb_new.png[/IMG][/URL]

[img]https://i.imgur.com/fGu1rKv.png[/img]

Titolo originale    It
Lingua originale    inglese
Paese di produzione    Stati Uniti d'America
Anno    2017
Durata    135 min
150 min (director's cut)[1]
Rapporto    2,35:1
Genere    orrore, drammatico, thriller
Regia    Andrés Muschietti
Soggetto    Stephen King (romanzo)
Sceneggiatura    Chase Palmer, Cary Fukunaga, Gary Dauberman
Produttore    Seth Grahame-Smith, Barbara Muschietti, David Katzenberg, Dan Lin, Roy Lee
Produttore esecutivo    John Silk, Marty P. Ewing
Casa di produzione    Warner Bros. Pictures, New Line Cinema, RatPac-Dune Entertainment, Vertigo Entertainment, KatzSmith Productions, Lin Pictures
Distribuzione (Italia)    Warner Bros. Pictures
Fotografia    Chung-hoon Chung
Montaggio    Jason Ballantine
Musiche    Benjamin Wallfisch

[img]https://i.imgur.com/W7kBqiE.png[/img]

    Jaeden Lieberher: William "Bill" Denbrough
    Bill Skarsgård: Pennywise/It
    Wyatt Oleff: Stanley "Stan" Uris
    Jeremy Ray: Benjamin "Ben" Hanscom
    Sophia Lillis: Beverly "Bev" Marsh
    Finn Wolfhard: Richard "Richie" Tozier
    Jack Dylan Grazer: Edward "Eddie" Kaspbrak
    Chosen Jacobs: Michael "Mike" Hanlon
    Jackson Robert Scott: George "Georgie" Denbrough
    Nicholas Hamilton: Henry Bowers
    Owen Teague: Patrick Hockstetter
    Logan Thompson: Victor "Vic" Criss
    Jake Sim: Reginald "Belch" Huggins
    Javier Botet: It in forma di lebbroso
    Tatum Lee: Judith
    Steven Williams: Leroy Hanlon
    Stuart Hughes: Oscar "Butch" Bowers
    Megan Charpentier: Greta Keene
    Stephen Bogaert: Alvin Marsh
    Joe Bostick: sig. Keene

[img]https://i.imgur.com/bFK3ggF.png[/img]

In un giorno piovoso dell'ottobre del 1988, l'adolescente balbuziente Bill Denbrough regala a Georgie, il suo fratellino di sette anni, una barca a vela di carta. Georgie porta la barchetta a navigare lungo le strade allagate della piccola città di Derry, quando l'oggetto cade in uno scarico fognario. Mentre tenta di recuperarlo, Georgie vede nelle fogne un clown che si presenta come Pennywise il Clown Danzante; il pagliaccio induce il bambino ad avvicinarsi con la proposta di restituirgli la barca, poi gli.....................

[img]https://i.imgur.com/48xHWWH.png[/img]

In the Town of Derry, the local kids are disappearing one by one, leaving behind bloody remains. In a place known as 'The Barrens', a group of seven kids are united by their horrifying and strange encounters with an evil clown and their determination to kill It.   

[img]https://i.imgur.com/K8bfNTy.png[/img]

[img]https://worldimages.gallery/images/2017/12/30/6W4rR.png[/img]
[img]https://worldimages.gallery/images/2017/12/30/6W5F5.png[/img]
[img]https://worldimages.gallery/images/2017/12/30/6WObb.png[/img]
[img]https://worldimages.gallery/images/2017/12/30/6WzRi.png[/img]
[img]https://worldimages.gallery/images/2017/12/30/6WuQe.png[/img]

[img]https://i.imgur.com/aVrMohH.png[/img]

[spoiler]
General
Unique ID                                : 220092402104081348288993073608399776506 (0xA5944138E5C149699FF7D165137BEAFA)
Complete name                            : C:UsersrobbyDesktopIt (2017).H264.ita.eng.sub.ita.NUita.eng.MIRCrewIt (2017).H264.ita.eng.sub.ita.eng.MIRCrew.mkv
Format                                   : Matroska
Format version                           : Version 2
File size                                : 1.94 GiB
Duration                                 : 2h 14mn
Overall bit rate                         : 2 058 Kbps
Movie name                               : MIRCrew
Encoded date                             : UTC 2017-12-30 17:31:38
Writing application                      : mkvmerge v5.4.0 ('Piper') built on Mar 10 2012 13:34:39
Writing library                          : Lavf54.63.100

Video
ID                                       : 1
Format                                   : AVC
Format/Info                              : Advanced Video Codec
Format profile                           : [email protected]
Format settings, CABAC                   : Yes
Format settings, ReFrames                : 2 frames
Muxing mode                              : Header stripping
Codec ID                                 : V_MPEG4/ISO/AVC
Duration                                 : 2h 14mn
Bit rate                                 : 1 300 Kbps
Width                                    : 720 pixels
Height                                   : 300 pixels
Display aspect ratio                     : 2.40:1
Frame rate mode                          : Variable
Frame rate                               : 23.976 fps
Color space                              : YUV
Chroma subsampling                       : 4:2:0
Bit depth                                : 8 bits
Scan type                                : Progressive
Bits/(Pixel*Frame)                       : 0.251
Stream size                              : 1.18 GiB (61%)
Title                                    : It (2017).H264.ita.eng.sub.ita.eng.MIRCrew
Writing library                          : x264 core 130 r2273
Encoding settings                        : cabac=1 / ref=2 / deblock=1:0:0 / analyse=0x1:0x131 / me=hex / subme=7 / psy=1 / psy_rd=1.00:0.00 / mixed_ref=0 / me_range=16 / chroma_me=1 / trellis=1 / 8x8dct=0 / cqm=0 / deadzone=21,11 / fast_pskip=1 / chroma_qp_offset=-2 / threads=3 / lookahead_threads=1 / sliced_threads=0 / nr=0 / decimate=1 / interlaced=0 / bluray_compat=0 / constrained_intra=0 / bframes=3 / b_pyramid=0 / b_adapt=1 / b_bias=0 / direct=3 / weightb=1 / open_gop=0 / weightp=2 / keyint=230 / keyint_min=23 / scenecut=40 / intra_refresh=0 / rc_lookahead=40 / rc=abr / mbtree=1 / bitrate=1300 / ratetol=1.0 / qcomp=0.60 / qpmin=10 / qpmax=69 / qpstep=4 / vbv_maxrate=24000 / vbv_bufsize=24000 / nal_hrd=none / ip_ratio=1.40 / aq=1:1.00
Language                                 : Italian
Default                                  : Yes
Forced                                   : No
DURATION                                 : 02:14:42.366000000
NUMBER_OF_FRAMES                         : 193783
NUMBER_OF_BYTES                          : 7484432875
_STATISTICS_WRITING_APP                  : mkvmerge v15.0.0 ('Duel with the Devil') 64-bit
_STATISTICS_WRITING_DATE_UTC             : 2017-12-22 17:43:51
_STATISTICS_TAGS                         : BPS DURATION NUMBER_OF_FRAMES NUMBER_OF_BYTES

Audio #1
ID                                       : 2
Format                                   : AC-3
Format/Info                              : Audio Coding 3
Mode extension                           : CM (complete main)
Muxing mode                              : Header stripping
Codec ID                                 : A_AC3
Duration                                 : 2h 14mn
Bit rate mode                            : Constant
Bit rate                                 : 384 Kbps
Channel(s)                               : 6 channels
Channel positions                        : Front: L C R, Side: L R, LFE
Sampling rate                            : 48.0 KHz
Bit depth                                : 16 bits
Compression mode                         : Lossy
Delay relative to video                  : -5ms
Stream size                              : 370 MiB (19%)
Title                                    : Ita Ac3 5.1
Language                                 : Italian
Default                                  : Yes
Forced                                   : No
DURATION                                 : 02:14:42.720000000
NUMBER_OF_FRAMES                         : 252585
NUMBER_OF_BYTES                          : 387970560
_STATISTICS_WRITING_APP                  : mkvmerge v15.0.0 ('Duel with the Devil') 64-bit
_STATISTICS_WRITING_DATE_UTC             : 2017-12-22 17:43:51
_STATISTICS_TAGS                         : BPS DURATION NUMBER_OF_FRAMES NUMBER_OF_BYTES

Audio #2
ID                                       : 3
Format                                   : AC-3
Format/Info                              : Audio Coding 3
Mode extension                           : CM (complete main)
Muxing mode                              : Header stripping
Codec ID                                 : A_AC3
Duration                                 : 2h 14mn
Bit rate mode                            : Constant
Bit rate                                 : 384 Kbps
Channel(s)                               : 6 channels
Channel positions                        : Front: L C R, Side: L R, LFE
Sampling rate                            : 48.0 KHz
Bit depth                                : 16 bits
Compression mode                         : Lossy
Delay relative to video                  : -5ms
Stream size                              : 370 MiB (19%)
Title                                    : eng Ac3 5.1
Language                                 : English
Default                                  : No
Forced                                   : No
DURATION                                 : 02:14:42.411000000
NUMBER_OF_FRAMES                         : 757726
NUMBER_OF_BYTES                          : 1524545464
_STATISTICS_WRITING_APP                  : mkvmerge v15.0.0 ('Duel with the Devil') 64-bit
_STATISTICS_WRITING_DATE_UTC             : 2017-12-22 17:43:51
_STATISTICS_TAGS                         : BPS DURATION NUMBER_OF_FRAMES NUMBER_OF_BYTES

Menu
00:00:00.000                             : :00:00:00.000
00:09:23.646                             : :00:09:23.646
00:18:31.861                             : :00:18:31.861
00:28:26.163                             : :00:28:26.163
00:38:36.981                             : :00:38:36.981
00:48:19.438                             : :00:48:19.438
00:59:30.776                             : :00:59:30.776
01:08:52.795                             : :01:08:52.795
01:16:58.823                             : :01:16:58.823
01:26:52.958                             : :01:26:52.958
01:38:15.306                             : :01:38:15.306
01:48:40.973                             : :01:48:40.973
02:04:07.899                             : :02:04:07.899
02:09:05.655                             : :02:09:05.655


[/spoiler]


[/color]

Files list

- It (2017).H264.ita.eng.sub.ita.eng.MIRCrew.eng.srt File size : 121.5 KB
- It (2017).H264.ita.eng.sub.ita.eng.MIRCrew.ita.srt File size : 94.78 KB
- It (2017).H264.ita.eng.sub.ita.eng.MIRCrew.mkv File size : 1.94 GB
- It (2017).H264.ita.eng.sub.ita.eng.MIRCrew.NUita.srt File size : 122.15 KB

Disqus