Chat
Users Online
+ 7 Guests online in the last 24 hours.

Welcome to our newest member, TimothyWhazy
Ads
Torrent name: Inconceivable (2017).H264.italian.english.Ac3-5.1.sub.ita.eng.spa.MIRCrew
File size: 1.49 GB
Seeds: 23
Leechs: 9
Categories: Movies SD
Torrent hash: 2b4c060f9c0efb649360ea83a4ed5bce4e8fc326
Social Share:
Uploader: robbyrs
Verified torrent:
    - udp://tracker.coppersurfer.tk:6969/announce
    - udp://tracker.opentrackr.org:1337/announce
    - udp://tracker.pirateparty.gr:6969/announce
    - udp://tracker.zer0day.to:1337/announce
    - udp://p4p.arenabg.com:1337/announce
    - udp://p4p.arenabg.ch:1337/announce
    - udp://eddie4.nl:6969/announce
    - udp://tracker.leechers-paradise.org:6969/announce
    - udp://9.rarbg.me:2740/announce
    - udp://9.rarbg.to:2740/announce
    - udp://9.rarbg.com:2710/announce
    - udp://tracker.pirateparty.gr:6969/announce
Download Inconceivable (2017).H264.italian.english.Ac3-5.1.sub.ita.eng.spa.MIRCrew
Download .torrent   Magnet Link
Torrent detail

Inconceivable (2017).H264.italian.english.Ac3-5.1.sub.ita.eng.spa.MIRCrew

Inconceivable (2017).H264.italian.english.Ac3-5.1.sub.ita.eng.spa.MIRCrew

[color=red][img]https://worldimages.gallery/images/2017/12/05/Vg6zm.png[/img]
NO FOUND ONLY ORIGINAL RELEASE

[img]https://worldimages.gallery/images/2017/09/02/4716a3153385da57f9bf0ad75d1cdd7a.gif[/img]

My release is always in double track audio italian and Original audio
for select it use VLC or dvd player home
not use wmp

Inconceivable (2017)

[img]https://worldimages.gallery/images/2017/12/31/6JTkg.png[/img]

[URL=https://www.imdb.com/title/tt3481634/][IMG]https://www.userlogos.org/files/logos/Sucka/imdb_new.png[/IMG][/URL]

[img]https://i.imgur.com/fGu1rKv.png[/img]

Titolo Originale: INCONCEIVABLE
Regia: Jonathan Baker
Durata: h 1.45
Nazionalità:  USA 2017
Genere: drammatico

[img]https://i.imgur.com/W7kBqiE.png[/img]

Nicolas Cage, Gina Gershon, Nicky Whelan, Faye Dunaway, Natalie Eva Marie, Leah Huebner, Jonathan Baker, James Van Patten, Tyler Jon Olson, Pernille Trojgaard

[img]https://i.imgur.com/bFK3ggF.png[/img]

Katie, una giovane e misteriosa donna, e sua figlia si trasferiscono in un anuova città per sfuggire al loro passato e stringono rapidamente amicizia con Angela Morgan, una madre che desidera da tempo allargare la sua famiglia. Mentre le loro vite si intrecciano, Angela e suo marito Brian invitano Katie a vivere nella loro casa per lavorare come bambinaia.

[img]https://i.imgur.com/48xHWWH.png[/img]

A mother looks to escape her abusive past by moving to a new town where she befriends another mother, who grows suspicious of her.

[img]https://i.imgur.com/K8bfNTy.png[/img]

[img]https://worldimages.gallery/images/2017/12/31/6H3ib.png[/img]
[img]https://worldimages.gallery/images/2017/12/31/6HGei.png[/img]
[img]https://worldimages.gallery/images/2017/12/31/6HpjR.png[/img]
[img]https://worldimages.gallery/images/2017/12/31/6J1Ke.png[/img]


[img]https://i.imgur.com/aVrMohH.png[/img]

[spoiler]
General
Unique ID                                : 320706271124292401964128500273689384238 (0xF145C7F5962D8F80DF4D52DF3FFBD52E)
Complete name                            : Inconceivable (2017).H264.ita.eng.sub.ita.eng.spa.MIRCrew.mkv
Format                                   : Matroska
Format version                           : Version 2
File size                                : 1.49 GiB
Duration                                 : 1h 46mn
Overall bit rate                         : 2 008 Kbps
Movie name                               : MIRCrew
Encoded date                             : UTC 2017-12-31 15:33:42
Writing application                      : Lavf54.63.100
Writing library                          : Lavf54.63.100

Video
ID                                       : 1
Format                                   : AVC
Format/Info                              : Advanced Video Codec
Format profile                           : [email protected]
Format settings, CABAC                   : Yes
Format settings, ReFrames                : 2 frames
Codec ID                                 : V_MPEG4/ISO/AVC
Duration                                 : 1h 46mn
Bit rate                                 : 1 200 Kbps
Nominal bit rate                         : 1 300 Kbps
Width                                    : 720 pixels
Height                                   : 304 pixels
Display aspect ratio                     : 2.40:1
Frame rate mode                          : Variable
Frame rate                               : 24.000 fps
Color space                              : YUV
Chroma subsampling                       : 4:2:0
Bit depth                                : 8 bits
Scan type                                : Progressive
Bits/(Pixel*Frame)                       : 0.228
Stream size                              : 911 MiB (60%)
Writing library                          : x264 core 130 r2273
Encoding settings                        : cabac=1 / ref=2 / deblock=1:0:0 / analyse=0x1:0x131 / me=hex / subme=7 / psy=1 / psy_rd=1.00:0.00 / mixed_ref=0 / me_range=16 / chroma_me=1 / trellis=1 / 8x8dct=0 / cqm=0 / deadzone=21,11 / fast_pskip=1 / chroma_qp_offset=-2 / threads=3 / lookahead_threads=1 / sliced_threads=0 / nr=0 / decimate=1 / interlaced=0 / bluray_compat=0 / constrained_intra=0 / bframes=3 / b_pyramid=0 / b_adapt=1 / b_bias=0 / direct=3 / weightb=1 / open_gop=0 / weightp=2 / keyint=240 / keyint_min=24 / scenecut=40 / intra_refresh=0 / rc_lookahead=40 / rc=abr / mbtree=1 / bitrate=1300 / ratetol=1.0 / qcomp=0.60 / qpmin=10 / qpmax=69 / qpstep=4 / vbv_maxrate=24000 / vbv_bufsize=24000 / nal_hrd=none / ip_ratio=1.40 / aq=1:1.00
Language                                 : Italian
Default                                  : Yes
Forced                                   : No

Audio #1
ID                                       : 2
Format                                   : AC-3
Format/Info                              : Audio Coding 3
Mode extension                           : CM (complete main)
Codec ID                                 : A_AC3
Duration                                 : 1h 46mn
Bit rate mode                            : Constant
Bit rate                                 : 384 Kbps
Channel(s)                               : 6 channels
Channel positions                        : Front: L C R, Side: L R, LFE
Sampling rate                            : 48.0 KHz
Bit depth                                : 16 bits
Compression mode                         : Lossy
Delay relative to video                  : 1mn 5s
Stream size                              : 291 MiB (19%)
Default                                  : Yes
Forced                                   : No

Audio #2
ID                                       : 3
Format                                   : AC-3
Format/Info                              : Audio Coding 3
Mode extension                           : CM (complete main)
Codec ID                                 : A_AC3
Duration                                 : 1h 46mn
Bit rate mode                            : Constant
Bit rate                                 : 384 Kbps
Channel(s)                               : 6 channels
Channel positions                        : Front: L C R, Side: L R, LFE
Sampling rate                            : 48.0 KHz
Bit depth                                : 16 bits
Compression mode                         : Lossy
Delay relative to video                  : 1mn 5s
Stream size                              : 291 MiB (19%)
Default                                  : Yes
Forced                                   : No


[/spoiler]


[/color]

Files list

- Inconceivable (2017).H264.ita.eng.sub.ita.eng.spa.MIRCrew.eng.srt File size : 75.97 KB
- Inconceivable (2017).H264.ita.eng.sub.ita.eng.spa.MIRCrew.ita.srt File size : 71.33 KB
- Inconceivable (2017).H264.ita.eng.sub.ita.eng.spa.MIRCrew.mkv File size : 1.49 GB
- Inconceivable (2017).H264.ita.eng.sub.ita.eng.spa.MIRCrew.spa.srt File size : 82.42 KB

Disqus