Chat
Users Online
+ 15 Guests online in the last 24 hours.

Welcome to our newest member, mzowwjwbjod
Ads
Torrent name: The Jesus Film1979 720p Esub BluRay Dual Audio English Hindi Gujarati GOPISAHI
File size: 714.25 MB
Seeds: 8
Leechs: 0
Categories: Apps
Torrent hash: 6b6b7b9c44e07bfaf86b89f752f6029325dc4811
Social Share:
Uploader: gopisahi
Verified torrent:
    - http://ipv4.tracker.harry.lu/announce
    - http://ipv4.tracker.harry.lu:80/announce
    - http://163.172.180.68:80/announce
    - http://t.nyaatracker.com/announce
    - http://tracker.devil-torrents.pl:80/announce
    - http://tracker.devil-torrents.pl/announce
    - http://open.kickasstracker.com/announce
    - http://163.172.180.68/announce
    - http://t.nyaatracker.com:80/announce
    - http://retracker.mgts.by:80/announce
    - http://45.33.11.224/announce
    - http://tracker.torrentyorg.pl:80/announce
    - http://pt.lax.mx:80/announce
    - udp://tracker.coppersurfer.tk:6969/announce
    - udp://tracker.pirateparty.gr:6969/announce
Download The Jesus Film1979 720p Esub BluRay Dual Audio English Hindi Gujarati GOPISAHI
Download .torrent   Magnet Link
Torrent detail

The Jesus Film1979 720p Esub BluRay Dual Audio English Hindi Gujarati GOPISAHI

[center][img]https://lookimg.com/images/2018/01/01/o03CM.jpg[/img]
Format                         : Matroska
Format version                 : Version 4 / Version 2
File size                      : 714 MiB
Duration                       : 2 h 7 min
Overall bit rate               : 782 kb/s
Movie name                     : The Jesus Film 1979

Video
Format                         : AVC
Codec ID                       : V_MPEG4/ISO/AVC
Duration                       : 2 h 7 min
Bit rate                       : 500 kb/s
Width                          : 1 280 pixels
Height                         : 720 pixels
Display aspect ratio           : 16:9
Frame rate mode                : Constant
Frame rate                     : 23.976 (24000/1001) FPS
Stream size                    : 457 MiB (64%)
Writing library                : x264 

Audio #1
Format                         : AAC
Duration                       : 2 h 7 min
Bit rate                       : 90.1 kb/s
Channel(s)                     : 6 channels
Channel positions              : Front: L C R, Side: L R, LFE
Sampling rate                  : 44.1 kHz
Frame rate                     : 43.066 FPS (1024 SPF)
Compression mode               : Lossy
Stream size                    : 82.3 MiB (12%)
Language                       : English

Audio #2
Format                         : AAC
Duration                       : 2 h 7 min
Bit rate                       : 96.0 kb/s
Channel(s)                     : 6 channels
Channel positions              : Front: L C R, Side: L R, LFE
Sampling rate                  : 44.1 kHz
Frame rate                     : 43.066 FPS (1024 SPF)
Compression mode               : Lossy
Stream size                    : 86.9 MiB (12%)
Language                       : Gujarati

Audio #3
Format                         : AAC
Duration                       : 2 h 7 min
Bit rate                       : 92.9 kb/s
Channel(s)                     : 6 channels
Channel positions              : Front: L C R, Side: L R, LFE
Sampling rate                  : 44.1 kHz
Frame rate                     : 43.066 FPS (1024 SPF)
Stream size                    : 84.9 MiB (12%)
Language                       : Hindi

Text
Language                       : EnglisH
[img]https://lookimg.com/images/2018/01/01/o04rv.jpg[/img]
[img]https://lookimg.com/images/2018/01/01/o0SoE.jpg[/img]
[img]https://lookimg.com/images/2018/01/01/o0swd.jpg[/img][/center]

Files list

- The Jesus Film1979 720p Esub BluRay Dual Audio English Hindi Gujarati GOPISAHI.mkv File size : 714.25 MB

Disqus