Chat
Users Online
+ 11 Guests online in the last 24 hours.

Welcome to our newest member, kwmzvhqozph
Ads
Torrent name: Kingsman: The Golden Circle - Il cerchio d oro.H264.italian.english.Ac3.sub.ita.eng.MIRCrew
File size: 1.97 GB
Seeds: 14
Leechs: 140
Categories: Apps
Torrent hash: b33202f776ffa0e224e6afacfbf220bc7509295c
Social Share:
Uploader: robbyrs
Verified torrent:
    - udp://tracker.coppersurfer.tk:6969/announce
    - udp://tracker.opentrackr.org:1337/announce
    - udp://tracker.pirateparty.gr:6969/announce
    - udp://tracker.zer0day.to:1337/announce
    - udp://p4p.arenabg.com:1337/announce
    - udp://p4p.arenabg.ch:1337/announce
    - udp://eddie4.nl:6969/announce
    - udp://tracker.leechers-paradise.org:6969/announce
    - udp://9.rarbg.me:2740/announce
    - udp://9.rarbg.to:2740/announce
    - udp://9.rarbg.com:2710/announce
    - udp://tracker.pirateparty.gr:6969/announce
Download Kingsman: The Golden Circle - Il cerchio d oro.H264.italian.english.Ac3.sub.ita.eng.MIRCrew
Download .torrent   Magnet Link
Torrent detail

Kingsman: The Golden Circle - Il cerchio d oro.H264.italian.english.Ac3.sub.ita.eng.MIRCrew

Kingsman: The Golden Circle - Il cerchio d oro (2017).H264.italian.english.Ac3.sub.ita.eng.MIRCrew

[color=red][img]https://worldimages.gallery/images/2017/12/05/Vg6zm.png[/img]
NO FOUND ONLY ORIGINAL RELEASE

[img]https://worldimages.gallery/images/2017/09/02/4716a3153385da57f9bf0ad75d1cdd7a.gif[/img]

My release is always in double track audio italian and Original audio
for select it use VLC or dvd player home
not use wmp

Kingsman Il cerchio d'oro -  The Golden Circle (2017)

[img]https://worldimages.gallery/images/2018/01/02/6fA4c.png[/img]

[URL=https://www.imdb.com/title/tt4649466/][IMG]https://www.userlogos.org/files/logos/Sucka/imdb_new.png[/IMG][/URL]

[img]https://i.imgur.com/fGu1rKv.png[/img]

Titolo originale    Kingsman: The Golden Circle
Lingua originale    inglese, svedese
Paese di produzione    Regno Unito, Stati Uniti d'America
Anno    2017
Durata    141 min
Rapporto    2,35: 1
Genere    azione, commedia, spionaggio
Regia    Matthew Vaughn
Soggetto    Mark Millar, Dave Gibbons (fumetto)
Sceneggiatura    Jane Goldman, Matthew Vaughn
Produttore    David Reid, Matthew Vaughn, Adam Bohling
Produttore esecutivo    Mark Millar, Dave Gibbons, Stephen Marks, Claudia Vaughn, Pierre Lagrange
Casa di produzione    Marv Films, Shangri-La Entertainment, TSG Entertainment
Distribuzione (Italia)    20th Century Fox
Fotografia    George Richmond
Montaggio    Eddie Hamilton
Effetti speciali    Angus Bickerton
Musiche    Henry Jackman, Matthew Margeson
Scenografia    Darren Gilford
Costumi    Arianne Phillips

[img]https://i.imgur.com/W7kBqiE.png[/img]

    Colin Firth: Harry Hart
    Julianne Moore: Poppy Adams
    Taron Egerton: Gary "Eggsy" Unwin / Galahad
    Mark Strong: Merlino
    Halle Berry: Ginger Ale
    Elton John: sé stesso
    Channing Tatum: Tequila
    Jeff Bridges: Champagne "Champion"
    Pedro Pascal: Whiskey
    Edward Holcroft: Charles "Charlie" Hesketh
    Hanna Alström: Principessa Tilde
    Sophie Cookson: Roxanne "Roxy" Morton / Lancillotto
    Michael Gambon: Artù
    Bruce Greenwood: Presidente degli Stati Uniti
    Emily Watson: Capo di stato maggiore Fox
    Tom Benedict Knight: Angel
    Poppy Delevingne: Clara Von Gluckfberg
    Samantha Womack: Michelle Unwin
    Keith Allen: Charles
    Thomas Turgoose: Liam
    Björn Granath: Re di Svezia
    Lena Endre: Regina di Svezia
    Tara Hugo: Barista
    Mark Arnold: Generale McCoy

[img]https://i.imgur.com/bFK3ggF.png[/img]

Un anno dopo aver salvato il mondo, Eggsy Unwin continua a essere un agente dell'agenzia di servizi segreti indipendente Kingsman come Galahad, inoltre sempre dalla medesima missione ha iniziato una relazione con la principessa Tilde dopo averla salvata.

[img]https://i.imgur.com/48xHWWH.png[/img]

When their headquarters are destroyed and the world is held hostage, the Kingsman's journey leads them to the discovery of an allied spy organization in the US. These two elite secret organizations must band together to defeat a common enemy.  

[img]https://i.imgur.com/K8bfNTy.png[/img]

[img]https://worldimages.gallery/images/2018/01/02/6fkDu.png[/img]
[img]https://worldimages.gallery/images/2018/01/02/6fnaH.png[/img]
[img]https://worldimages.gallery/images/2018/01/02/6fIX1.png[/img]
[img]https://worldimages.gallery/images/2018/01/02/6fQ0O.png[/img]
[img]https://worldimages.gallery/images/2018/01/02/6feBm.png[/img]
[img]https://worldimages.gallery/images/2018/01/02/6fwJ3.png[/img]


[img]https://i.imgur.com/aVrMohH.png[/img]

[spoiler]
General
Unique ID                                : 180999076179539144232981954242259678403 (0x882B2771443B4F38A457CC04633374C3)
Complete name                            : C:UsersrobbyDesktopKingsman Il cerchio d'oro -  The Golden Circle (2017).h264.ita.eng.sub.ita.eng.MIRCrewKingsman Il cerchio d'oro -  The Golden Circle (2017).h264.ita.eng.sub.ita.eng.MIRCrew.mkv
Format                                   : Matroska
Format version                           : Version 2
File size                                : 1.97 GiB
Duration                                 : 2h 21mn
Overall bit rate                         : 1 999 Kbps
Movie name                               : MIRCrew
Encoded date                             : UTC 2017-12-23 08:35:05
Writing application                      : mkvmerge v5.4.0 ('Piper') built on Mar 10 2012 13:34:39
Writing library                          : Lavf54.63.100

Video
ID                                       : 1
Format                                   : AVC
Format/Info                              : Advanced Video Codec
Format profile                           : [email protected]
Format settings, CABAC                   : Yes
Format settings, ReFrames                : 2 frames
Muxing mode                              : Header stripping
Codec ID                                 : V_MPEG4/ISO/AVC
Duration                                 : 2h 21mn
Bit rate                                 : 1 300 Kbps
Width                                    : 720 pixels
Height                                   : 300 pixels
Display aspect ratio                     : 2.40:1
Original display aspect ratio            : 2.40:1
Frame rate mode                          : Variable
Frame rate                               : 23.976 fps
Color space                              : YUV
Chroma subsampling                       : 4:2:0
Bit depth                                : 8 bits
Scan type                                : Progressive
Bits/(Pixel*Frame)                       : 0.251
Stream size                              : 1.24 GiB (63%)
Writing library                          : x264 core 130 r2273
Encoding settings                        : cabac=1 / ref=2 / deblock=1:0:0 / analyse=0x1:0x131 / me=hex / subme=7 / psy=1 / psy_rd=1.00:0.00 / mixed_ref=0 / me_range=16 / chroma_me=1 / trellis=1 / 8x8dct=0 / cqm=0 / deadzone=21,11 / fast_pskip=1 / chroma_qp_offset=-2 / threads=3 / lookahead_threads=1 / sliced_threads=0 / nr=0 / decimate=1 / interlaced=0 / bluray_compat=0 / constrained_intra=0 / bframes=3 / b_pyramid=0 / b_adapt=1 / b_bias=0 / direct=3 / weightb=1 / open_gop=0 / weightp=2 / keyint=230 / keyint_min=23 / scenecut=40 / intra_refresh=0 / rc_lookahead=40 / rc=abr / mbtree=1 / bitrate=1300 / ratetol=1.0 / qcomp=0.60 / qpmin=10 / qpmax=69 / qpstep=4 / vbv_maxrate=24000 / vbv_bufsize=24000 / nal_hrd=none / ip_ratio=1.40 / aq=1:1.00
Language                                 : Italian
Default                                  : Yes
Forced                                   : No
DURATION                                 : 02:21:02.204000000
NUMBER_OF_FRAMES                         : 202890
NUMBER_OF_BYTES                          : 8855654110
_STATISTICS_WRITING_APP                  : mkvmerge v15.0.0 ('Duel with the Devil') 64-bit
_STATISTICS_WRITING_DATE_UTC             : 2017-12-15 16:24:23
_STATISTICS_TAGS                         : BPS DURATION NUMBER_OF_FRAMES NUMBER_OF_BYTES

Audio #1
ID                                       : 2
Format                                   : AC-3
Format/Info                              : Audio Coding 3
Mode extension                           : CM (complete main)
Muxing mode                              : Header stripping
Codec ID                                 : A_AC3
Duration                                 : 2h 21mn
Bit rate mode                            : Constant
Bit rate                                 : 256 Kbps
Channel(s)                               : 2 channels
Channel positions                        : Front: L R
Sampling rate                            : 48.0 KHz
Bit depth                                : 16 bits
Compression mode                         : Lossy
Delay relative to video                  : -42ms
Stream size                              : 258 MiB (13%)
Title                                    : ita ac3 2.0
Language                                 : Italian
Default                                  : Yes
Forced                                   : No

Audio #2
ID                                       : 3
Format                                   : AC-3
Format/Info                              : Audio Coding 3
Mode extension                           : CM (complete main)
Muxing mode                              : Header stripping
Codec ID                                 : A_AC3
Duration                                 : 2h 21mn
Bit rate mode                            : Constant
Bit rate                                 : 448 Kbps
Channel(s)                               : 6 channels
Channel positions                        : Front: L C R, Side: L R, LFE
Sampling rate                            : 48.0 KHz
Bit depth                                : 16 bits
Compression mode                         : Lossy
Delay relative to video                  : -5ms
Stream size                              : 452 MiB (22%)
Title                                    : eng ac3 5.1
Language                                 : English
Default                                  : No
Forced                                   : No
DURATION                                 : 02:21:02.251000000
NUMBER_OF_FRAMES                         : 793336
NUMBER_OF_BYTES                          : 1596192152
_STATISTICS_WRITING_APP                  : mkvmerge v15.0.0 ('Duel with the Devil') 64-bit
_STATISTICS_WRITING_DATE_UTC             : 2017-12-15 16:24:23
_STATISTICS_TAGS                         : BPS DURATION NUMBER_OF_FRAMES NUMBER_OF_BYTES

Menu
00:00:00.000                             : :Chapter 01
00:04:51.958                             : :Chapter 02
00:09:39.454                             : :Chapter 03
00:13:36.607                             : :Chapter 04
00:18:54.300                             : :Chapter 05
00:24:57.287                             : :Chapter 06
00:28:43.347                             : :Chapter 07
00:32:52.304                             : :Chapter 08
00:39:18.731                             : :Chapter 09
00:43:21.849                             : :Chapter 10
00:48:26.570                             : :Chapter 11
00:53:54.106                             : :Chapter 12
00:58:31.258                             : :Chapter 13
01:05:04.901                             : :Chapter 14
01:09:52.522                             : :Chapter 15
01:13:34.744                             : :Chapter 16
01:19:41.860                             : :Chapter 17
01:23:45.103                             : :Chapter 18
01:28:55.288                             : :Chapter 19
01:33:25.225                             : :Chapter 20
01:40:14.759                             : :Chapter 21
01:45:03.255                             : :Chapter 22
01:49:38.489                             : :Chapter 23
01:55:15.992                             : :Chapter 24
02:01:40.835                             : :Chapter 25
02:05:44.036                             : :Chapter 26
02:12:36.407                             : :Chapter 27
02:15:15.274                             : :Chapter 28





[/spoiler]


[/color]


Files list

- Kingsman Il cerchio d'oro - The Golden Circle (2017).h264.ita.eng.sub.ita.eng.MIRCrew.eng.srt File size : 144.08 KB
- Kingsman Il cerchio d'oro - The Golden Circle (2017).h264.ita.eng.sub.ita.eng.MIRCrew.ita.srt File size : 115.42 KB
- Kingsman Il cerchio d'oro - The Golden Circle (2017).h264.ita.eng.sub.ita.eng.MIRCrew.mkv File size : 1.97 GB
- Kingsman Il cerchio d'oro - The Golden Circle (2017).h264.ita.eng.sub.ita.eng.MIRCrew.srt File size : 340 B

Disqus