Chat
Users Online
+ 15 Guests online in the last 24 hours.

Welcome to our newest member, gwnwzhpynrr
Ads
Torrent name: Open Water 3: Cage Dive (2017).H264.italian.english.Ac3-5.1sub.ita.MIRCrew
File size: 1.2 GB
Seeds: 11
Leechs: 12
Categories: Movies SD
Torrent hash: 52bdd05be0c8cf32cc9d5a4cce9a5f7cd9a5f83a
Social Share:
Uploader: robbyrs
Verified torrent:
    - udp://tracker.coppersurfer.tk:6969/announce
    - udp://tracker.opentrackr.org:1337/announce
    - udp://tracker.pirateparty.gr:6969/announce
    - udp://tracker.zer0day.to:1337/announce
    - udp://p4p.arenabg.com:1337/announce
    - udp://p4p.arenabg.ch:1337/announce
    - udp://eddie4.nl:6969/announce
    - udp://tracker.leechers-paradise.org:6969/announce
    - udp://9.rarbg.me:2740/announce
    - udp://9.rarbg.to:2740/announce
    - udp://9.rarbg.com:2710/announce
    - http://bigfoot1942.sektori.org:6969/announce
    - udp://tracker.internetwarriors.net:1337/announce
    - udp://oscar.reyesleon.xyz:6969/announce
    - udp://tracker.cyberia.is:6969/announce
Download Open Water 3: Cage Dive (2017).H264.italian.english.Ac3-5.1sub.ita.MIRCrew
Download .torrent   Magnet Link
Torrent detail

Open Water 3: Cage Dive (2017).H264.italian.english.Ac3-5.1sub.ita.MIRCrew

Open Water 3: Cage Dive (2017).H264.italian.english.Ac3-5.1sub.ita.MIRCrew

[color=red][img]https://worldimages.gallery/images/2017/12/05/Vg6zm.png[/img]
NO FOUND ONLY ORIGINAL RELEASE

[img]https://worldimages.gallery/images/2017/09/02/4716a3153385da57f9bf0ad75d1cdd7a.gif[/img]

My release is always in double track audio italian and Original audio
for select it use VLC or dvd player home
not use wmp

Open Water 3 - Cage Dive (2017)

[img]https://worldimages.gallery/images/2018/01/03/6yLMo.png[/img]

[URL=https://www.imdb.com/title/tt4126568/][IMG]https://www.userlogos.org/files/logos/Sucka/imdb_new.png[/IMG][/URL]

[img]https://i.imgur.com/fGu1rKv.png[/img]

GENERE: Drammatico, Horror, Thriller
ANNO: 2017
REGIA: Gerald Rascionato
PAESE: Australia
DURATA: 80 Min
DISTRIBUZIONE: Eagle Pictures

[img]https://i.imgur.com/W7kBqiE.png[/img]

Joel Hogan, Josh Potthoff, Megan Peta Hill, Pete Valley, Mark Fell, Christopher Callen
    
[img]https://i.imgur.com/bFK3ggF.png[/img]

Tre amici californiani si recano in Australia per girare un video subacqueo sulle loro immersioni tra gli squali, da utlizzare poi come provino per un reality show estremo chiamato Shark Cage Dive................

[img]https://i.imgur.com/48xHWWH.png[/img]

Three friends filming an audition tape for an extreme reality show, take part in shark cage diving, only to be left in great white infested waters, turning their recording into life and death.

[img]https://i.imgur.com/K8bfNTy.png[/img]

[img]https://worldimages.gallery/images/2018/01/03/6oFWX.png[/img]
[img]https://worldimages.gallery/images/2018/01/03/6oGOn.png[/img]
[img]https://worldimages.gallery/images/2018/01/03/6op30.png[/img]

[img]https://i.imgur.com/aVrMohH.png[/img]

[spoiler]
General
Unique ID                                : 222765086673435403574899148230017919995 (0xA796FEBECC289964FB00E135E5BBABFB)
Complete name                            : Open Water 3 - Cage Dive (2017).H264.ita.eng.sub.ita.MIRCrewOpen Water 3 - Cage Dive (2017).H264.ita.eng.sub.ita.MIRCrew.mkv
Format                                   : Matroska
Format version                           : Version 2
File size                                : 1.20 GiB
Duration                                 : 1h 20mn
Overall bit rate                         : 2 134 Kbps
Movie name                               : MIRCrew
Encoded date                             : UTC 2017-12-24 14:32:02
Writing application                      : Lavf54.63.100
Writing library                          : Lavf54.63.100

Video
ID                                       : 1
Format                                   : AVC
Format/Info                              : Advanced Video Codec
Format profile                           : [email protected]
Format settings, CABAC                   : Yes
Format settings, ReFrames                : 2 frames
Codec ID                                 : V_MPEG4/ISO/AVC
Duration                                 : 1h 20mn
Bit rate                                 : 1 196 Kbps
Nominal bit rate                         : 1 300 Kbps
Width                                    : 720 pixels
Height                                   : 404 pixels
Display aspect ratio                     : 16:9
Frame rate mode                          : Variable
Frame rate                               : 24.000 fps
Color space                              : YUV
Chroma subsampling                       : 4:2:0
Bit depth                                : 8 bits
Scan type                                : Progressive
Bits/(Pixel*Frame)                       : 0.171
Stream size                              : 687 MiB (56%)
Writing library                          : x264 core 130 r2273
Encoding settings                        : cabac=1 / ref=2 / deblock=1:0:0 / analyse=0x1:0x131 / me=hex / subme=7 / psy=1 / psy_rd=1.00:0.00 / mixed_ref=0 / me_range=16 / chroma_me=1 / trellis=1 / 8x8dct=0 / cqm=0 / deadzone=21,11 / fast_pskip=1 / chroma_qp_offset=-2 / threads=3 / lookahead_threads=1 / sliced_threads=0 / nr=0 / decimate=1 / interlaced=0 / bluray_compat=0 / constrained_intra=0 / bframes=3 / b_pyramid=0 / b_adapt=1 / b_bias=0 / direct=3 / weightb=1 / open_gop=0 / weightp=2 / keyint=240 / keyint_min=24 / scenecut=40 / intra_refresh=0 / rc_lookahead=40 / rc=abr / mbtree=1 / bitrate=1300 / ratetol=1.0 / qcomp=0.60 / qpmin=10 / qpmax=69 / qpstep=4 / vbv_maxrate=24000 / vbv_bufsize=24000 / nal_hrd=none / ip_ratio=1.40 / aq=1:1.00
Language                                 : Italian
Default                                  : Yes
Forced                                   : No
DURATION                                 : 01:20:21.167000000
NUMBER_OF_FRAMES                         : 115708
NUMBER_OF_BYTES                          : 6538480636
_STATISTICS_WRITING_APP                  : mkvmerge v9.6.0 ('Slave To Your Mind') 64bit
_STATISTICS_WRITING_DATE_UTC             : 2017-12-19 12:44:15
_STATISTICS_TAGS                         : BPS DURATION NUMBER_OF_FRAMES NUMBER_OF_BYTES

Audio #1
ID                                       : 2
Format                                   : AC-3
Format/Info                              : Audio Coding 3
Mode extension                           : CM (complete main)
Codec ID                                 : A_AC3
Duration                                 : 1h 20mn
Bit rate mode                            : Constant
Bit rate                                 : 448 Kbps
Channel(s)                               : 6 channels
Channel positions                        : Front: L C R, Side: L R, LFE
Sampling rate                            : 48.0 KHz
Bit depth                                : 16 bits
Compression mode                         : Lossy
Delay relative to video                  : 1mn 5s
Stream size                              : 257 MiB (21%)
Language                                 : Italian
Default                                  : No
Forced                                   : No
DURATION                                 : 01:20:21.376000000
NUMBER_OF_FRAMES                         : 150668
NUMBER_OF_BYTES                          : 385710080
_STATISTICS_WRITING_APP                  : mkvmerge v9.6.0 ('Slave To Your Mind') 64bit
_STATISTICS_WRITING_DATE_UTC             : 2017-12-19 12:44:15
_STATISTICS_TAGS                         : BPS DURATION NUMBER_OF_FRAMES NUMBER_OF_BYTES

Audio #2
ID                                       : 3
Format                                   : AC-3
Format/Info                              : Audio Coding 3
Mode extension                           : CM (complete main)
Codec ID                                 : A_AC3
Duration                                 : 1h 20mn
Bit rate mode                            : Constant
Bit rate                                 : 448 Kbps
Channel(s)                               : 6 channels
Channel positions                        : Front: L C R, Side: L R, LFE
Sampling rate                            : 48.0 KHz
Bit depth                                : 16 bits
Compression mode                         : Lossy
Delay relative to video                  : 1mn 5s
Stream size                              : 257 MiB (21%)
Language                                 : English
Default                                  : No
Forced                                   : No
DURATION                                 : 01:20:21.376000000
NUMBER_OF_FRAMES                         : 452004
NUMBER_OF_BYTES                          : 909432116
_STATISTICS_WRITING_APP                  : mkvmerge v9.6.0 ('Slave To Your Mind') 64bit
_STATISTICS_WRITING_DATE_UTC             : 2017-12-19 12:44:15
_STATISTICS_TAGS                         : BPS DURATION NUMBER_OF_FRAMES NUMBER_OF_BYTES

Text #1
ID                                       : 4
Format                                   : ASS
Codec ID                                 : S_TEXT/ASS
Codec ID/Info                            : Advanced Sub Station Alpha
Compression mode                         : Lossless
Title                                    : Sub. Ita. Forced
Language                                 : Italian
Default                                  : Yes
Forced                                   : Yes
DURATION                                 : 00:12:38.416000000
NUMBER_OF_FRAMES                         : 2
NUMBER_OF_BYTES                          : 52
_STATISTICS_WRITING_APP                  : mkvmerge v9.6.0 ('Slave To Your Mind') 64bit
_STATISTICS_WRITING_DATE_UTC             : 2017-12-19 12:44:15
_STATISTICS_TAGS                         : BPS DURATION NUMBER_OF_FRAMES NUMBER_OF_BYTES

Text #2
ID                                       : 5
Format                                   : ASS
Codec ID                                 : S_TEXT/ASS
Codec ID/Info                            : Advanced Sub Station Alpha
Compression mode                         : Lossless
Title                                    : Sub. Ita.
Language                                 : Italian
Default                                  : No
Forced                                   : No
DURATION                                 : 01:11:22.916000000
NUMBER_OF_FRAMES                         : 811
NUMBER_OF_BYTES                          : 37964
_STATISTICS_WRITING_APP                  : mkvmerge v9.6.0 ('Slave To Your Mind') 64bit
_STATISTICS_WRITING_DATE_UTC             : 2017-12-19 12:44:15
_STATISTICS_TAGS                         : BPS DURATION NUMBER_OF_FRAMES NUMBER_OF_BYTES

Menu
00:00:00.000                             : :(01)00:00:00:000
00:00:30.583                             : :(02)00:00:30:583
00:10:11.875                             : :(03)00:10:11:875
00:20:33.583                             : :(04)00:20:33:583
00:26:58.625                             : :(05)00:26:58:625
00:31:32.833                             : :(06)00:31:32:833
00:37:38.541                             : :(07)00:37:38:541
00:44:06.500                             : :(08)00:44:06:500
00:48:41.875                             : :(09)00:48:41:875
00:54:44.125                             : :(10)00:54:44:125
00:58:57.541                             : :(11)00:58:57:541
01:05:35.625                             : :(12)01:05:35:625
01:12:14.666                             : :(13)01:12:14:666


[/spoiler]

[/color]

 

Files list

- Open Water 3 - Cage Dive (2017).H264.ita.eng.sub.ita.MIRCrew.mkv File size : 1.2 GB
- Open Water 3 - Cage Dive (2017).H264.ita.eng.sub.ita.MIRCrew_track4_ita.ass File size : 480 B
- Open Water 3 - Cage Dive (2017).H264.ita.eng.sub.ita.MIRCrew_track5_ita.ass File size : 38.24 KB

Disqus