Chat
Users Online
+ 7 Guests online in the last 24 hours.

Welcome to our newest member, Nvxlfkz
Ads
Torrent name: Attraction - Prityazhenie (2017).H264.Rus.Ac3.sub.ita.eng.spa.MIRCrew
File size: 1.62 GB
Seeds: 13
Leechs: 382
Categories: Movies SD
Torrent hash: 3bb6daca06c5ce8d50612b287b492f783370ffc4
Social Share:
Uploader: robbyrs
Verified torrent:
    - udp://tracker.coppersurfer.tk:6969/announce
    - udp://tracker.opentrackr.org:1337/announce
    - udp://tracker.pirateparty.gr:6969/announce
    - udp://tracker.zer0day.to:1337/announce
    - udp://p4p.arenabg.com:1337/announce
    - udp://p4p.arenabg.ch:1337/announce
    - udp://eddie4.nl:6969/announce
    - udp://tracker.leechers-paradise.org:6969/announce
    - udp://9.rarbg.me:2740/announce
    - udp://9.rarbg.to:2740/announce
    - udp://9.rarbg.com:2710/announce
    - http://bigfoot1942.sektori.org:6969/announce
    - udp://tracker.internetwarriors.net:1337/announce
    - udp://oscar.reyesleon.xyz:6969/announce
    - udp://tracker.cyberia.is:6969/announce
Download Attraction - Prityazhenie (2017).H264.Rus.Ac3.sub.ita.eng.spa.MIRCrew
Download .torrent   Magnet Link
Torrent detail

Attraction - Prityazhenie (2017).H264.Rus.Ac3.sub.ita.eng.spa.MIRCrew

Attraction - Prityazhenie (2017).H264.Rus.Ac3.sub.ita.eng.spa.MIRCrew

[color=red][img]https://worldimages.gallery/images/2017/12/05/Vg6zm.png[/img]
NO FOUND ONLY ORIGINAL RELEASE

[img]https://worldimages.gallery/images/2017/09/02/4716a3153385da57f9bf0ad75d1cdd7a.gif[/img]

Attraction - Prityazhenie (2017)

Subtitle: english - Italian - Spanish  inside

Sottotilolo italiano  tradotto alla bene e meglio
data la durata del film, ma sempre capibile per ora il convento MIRCrew passa questo

[img]https://worldimages.gallery/images/2018/01/03/6y4D6.png[/img]

[URL=https://www.imdb.com/title/tt4731148/][IMG]https://www.userlogos.org/files/logos/Sucka/imdb_new.png[/IMG][/URL]

[img]https://i.imgur.com/fGu1rKv.png[/img]

Original title:  Prityazhenie
Directed by     Fyodor Bondarchuk
Produced by     

    Fyodor Bondarchuk
    Dmitriy Rudovskiy
    Mikhail Vrubel
    Gabriel Klement
    Aleksandr Andryushchenko
    Anton Zlatopolskiy

Screenplay by     
Andrey Zolotaryov
 Oleg Malovichko
Music by     Ivan Burlyaev
Cinematography     Mikhail Khasaya
Production company Art Pictures Studio
Distributed by     Columbia Pictures
Release date 26 January 2017 (Russia)
Running time  132 minutes
Country     Russia

[img]https://i.imgur.com/W7kBqiE.png[/img]

    Irina Starshenbaum
    Alexander Petrov
    Oleg Menshikov
    Rinal Mukhametov

[img]https://i.imgur.com/bFK3ggF.png[/img]

Secondo i rapporti delle autorità, l'oggetto volante non identificato che si è schiantato a Mosca è presumibilmente di natura extraterrestre. La maggior parte della zona di Chertanovo è transennata e la polizia e l'esercito si recano sul luogo dell'incidente. I funzionari discutono sulla possibilità di un'evacuazione di emergenze mentre il ministero della difesa riunisce un comitato speciale a cui affidare il compito di stabilire un eventuale contatto con i visitatori ancora in vita.

[img]https://i.imgur.com/48xHWWH.png[/img]

After an alien ship crash lands onto a Russian city, many who saw it and the occupants start to question their own existence while there are those who demand the aliens leave Earth.

[img]https://i.imgur.com/K8bfNTy.png[/img]

[img]https://worldimages.gallery/images/2018/01/03/6yZ6e.png[/img]
[img]https://worldimages.gallery/images/2018/01/03/6ycHg.png[/img]
[img]https://worldimages.gallery/images/2018/01/03/6yqzX.png[/img]
[img]https://worldimages.gallery/images/2018/01/03/6y5Gn.png[/img]
[img]https://worldimages.gallery/images/2018/01/03/6yOb0.png[/img]
[img]https://worldimages.gallery/images/2018/01/03/6yzZo.png[/img]


[img]https://i.imgur.com/aVrMohH.png[/img]

[spoiler]
General
Unique ID                                : 181131321616455816941273738148658735468 (0x88449FA5590762B49BF02888E7DAE96C)
Complete name                            : C:UsersrobbyDesktopAttraction - Prityazhenie (2017).H264.Rus.sub.ita.eng.spa.MIRCrewAttraction - Prityazhenie (2017).H264.Rus.sub.ita.eng.spa.MIRCrew.mkv
Format                                   : Matroska
Format version                           : Version 2
File size                                : 1.62 GiB
Duration                                 : 2h 12mn
Overall bit rate                         : 1 746 Kbps
Movie name                               : MIRCrew
Encoded date                             : UTC 2017-04-20 09:59:33
Writing application                      : mkvmerge v5.4.0 ('Piper') built on Mar 10 2012 13:34:39
Writing library                          : Lavf54.63.100
COPYRIGHT                                : robbyrs
DATE                                     : 2017

Video
ID                                       : 1
Format                                   : AVC
Format/Info                              : Advanced Video Codec
Format profile                           : [email protected]
Format settings, CABAC                   : Yes
Format settings, ReFrames                : 2 frames
Muxing mode                              : Header stripping
Codec ID                                 : V_MPEG4/ISO/AVC
Duration                                 : 2h 12mn
Bit rate                                 : 1 290 Kbps
Width                                    : 720 pixels
Height                                   : 304 pixels
Display aspect ratio                     : 2.40:1
Frame rate mode                          : Variable
Frame rate                               : 24.000 fps
Color space                              : YUV
Chroma subsampling                       : 4:2:0
Bit depth                                : 8 bits
Scan type                                : Progressive
Bits/(Pixel*Frame)                       : 0.246
Stream size                              : 1.17 GiB (72%)
Title                                    : Attraction - Prityazhenie (2017).H264.Rus.sub.ita.eng.spa.MIRCrew
Writing library                          : x264 core 130 r2273
Encoding settings                        : cabac=1 / ref=2 / deblock=1:0:0 / analyse=0x1:0x131 / me=hex / subme=7 / psy=1 / psy_rd=1.00:0.00 / mixed_ref=0 / me_range=16 / chroma_me=1 / trellis=1 / 8x8dct=0 / cqm=0 / deadzone=21,11 / fast_pskip=1 / chroma_qp_offset=-2 / threads=12 / lookahead_threads=2 / sliced_threads=0 / nr=0 / decimate=1 / interlaced=0 / bluray_compat=0 / constrained_intra=0 / bframes=3 / b_pyramid=0 / b_adapt=1 / b_bias=0 / direct=3 / weightb=1 / open_gop=0 / weightp=2 / keyint=240 / keyint_min=24 / scenecut=40 / intra_refresh=0 / rc_lookahead=40 / rc=abr / mbtree=1 / bitrate=1290 / ratetol=1.0 / qcomp=0.60 / qpmin=10 / qpmax=69 / qpstep=4 / vbv_maxrate=24000 / vbv_bufsize=24000 / nal_hrd=none / ip_ratio=1.40 / aq=1:1.00
Language                                 : Russian
Default                                  : Yes
Forced                                   : No

Audio
ID                                       : 2
Format                                   : AC-3
Format/Info                              : Audio Coding 3
Mode extension                           : CM (complete main)
Muxing mode                              : Header stripping
Codec ID                                 : A_AC3
Duration                                 : 2h 12mn
Bit rate mode                            : Constant
Bit rate                                 : 448 Kbps
Channel(s)                               : 6 channels
Channel positions                        : Front: L C R, Side: L R, LFE
Sampling rate                            : 48.0 KHz
Bit depth                                : 16 bits
Compression mode                         : Lossy
Delay relative to video                  : -5ms
Stream size                              : 425 MiB (26%)
Title                                    : Rus
Language                                 : Russian
Default                                  : Yes
Forced                                   : No

Menu
00:00:00.000                             : :
00:10:03.708                             : :
00:23:20.208                             : :
00:29:36.458                             : :
00:42:24.417                             : :
00:50:32.000                             : :
01:02:20.500                             : :
01:14:38.792                             : :
01:23:25.292                             : :
01:37:06.583                             : :
01:46:10.125                             : :
01:55:38.500                             : :




[/spoiler]

[/color]

Files list

- Attraction - Prityazhenie (2017).H264.Rus.sub.ita.eng.spa.MIRCrew.eng.srt File size : 97.78 KB
- Attraction - Prityazhenie (2017).H264.Rus.sub.ita.eng.spa.MIRCrew.mkv File size : 1.62 GB
- Attraction - Prityazhenie (2017).H264.Rus.sub.ita.eng.spa.MIRCrew.spa.srt File size : 97.76 KB
- Attraction - Prityazhenie (2017).H264.Rus.sub.ita.eng.spa.MIRCrew.srt File size : 100 KB

Disqus