Chat
Users Online
+ 10 Guests online in the last 24 hours.

Welcome to our newest member, Step67
Ads
Torrent name: Amityville The Awakening - Il risveglio (2017).H264.italian.english.Ac3.sub.ita.eng.MIRCrew
File size: 1.34 GB
Seeds: 20
Leechs: 826
Categories: Movies SD
Torrent hash: 84e52cf8e154ad7632b62f4de6b0bd1f054c16e4
Social Share:
Uploader: robbyrs
Verified torrent:
    - udp://tracker.coppersurfer.tk:6969/announce
    - udp://tracker.opentrackr.org:1337/announce
    - udp://tracker.pirateparty.gr:6969/announce
    - udp://tracker.zer0day.to:1337/announce
    - udp://p4p.arenabg.com:1337/announce
    - udp://p4p.arenabg.ch:1337/announce
    - udp://eddie4.nl:6969/announce
    - udp://tracker.leechers-paradise.org:6969/announce
    - udp://9.rarbg.me:2740/announce
    - udp://9.rarbg.to:2740/announce
    - udp://9.rarbg.com:2710/announce
    - http://bigfoot1942.sektori.org:6969/announce
    - udp://tracker.internetwarriors.net:1337/announce
    - udp://oscar.reyesleon.xyz:6969/announce
    - udp://tracker.cyberia.is:6969/announce
Download Amityville The Awakening - Il risveglio (2017).H264.italian.english.Ac3.sub.ita.eng.MIRCrew
Download .torrent   Magnet Link
Torrent detail

Amityville The Awakening - Il risveglio (2017).H264.italian.english.Ac3.sub.ita.eng.MIRCrew

Amityville The Awakening - Il risveglio (2017).H264.italian.english.Ac3.sub.ita.eng.MIRCrew

[color=red][img]https://worldimages.gallery/images/2017/12/05/Vg6zm.png[/img]
NO FOUND ONLY ORIGINAL RELEASE

[img]https://worldimages.gallery/images/2017/09/02/4716a3153385da57f9bf0ad75d1cdd7a.gif[/img]

My release is always in double track audio italian and Original audio
for select it use VLC or dvd player home
not use wmp

Amityville - Il risveglio - Amityville The Awakening (2017)

[img]https://worldimages.gallery/images/2018/01/04/604SD.png[/img]

[URL=https://www.imdb.com/title/tt1935897/][IMG]https://www.userlogos.org/files/logos/Sucka/imdb_new.png[/IMG][/URL]

[img]https://i.imgur.com/fGu1rKv.png[/img]

Genre: Horror, Mystery & Suspense
Directed By: Franck Khalfoun
Written By: Franck Khalfoun
In Theaters: Oct 28, 2017  limited
On Disc/Streaming: Nov 14, 2017
Runtime: 100 minutes
Studio: Dimension Films

[img]https://i.imgur.com/W7kBqiE.png[/img]

Jennifer Jason Leigh, Bella Thorne, Cameron Monaghan, Thomas Mann, Taylor Spreitler, Kurtwood Smith

[img]https://i.imgur.com/bFK3ggF.png[/img]

Belle (Bella Thorne) si trasferisce con la famiglia al numero 112 di Ocean Avenue, nella cittadina costiera di Amityville. Il prezzo vantaggioso col quale sua madre (Jennifer Jason Leigh) riesce a ottenere l'abitazione, permette alla donna di far fronte alle costose cure mediche del figlio James (Cameron Monaghan), gemello di Belle in stato comatoso e...................

[img]https://i.imgur.com/48xHWWH.png[/img]

A desperate single mother moves with her three children into the notorious, supposedly haunted, real-life Amityville house to try and use its dark powers to cure her comatose son. Things go horribly wrong.   

[img]https://i.imgur.com/K8bfNTy.png[/img]

[img]https://worldimages.gallery/images/2018/01/04/605p3.png[/img]
[img]https://worldimages.gallery/images/2018/01/04/60Omc.png[/img]
[img]https://worldimages.gallery/images/2018/01/04/60zqA.png[/img]


[img]https://i.imgur.com/aVrMohH.png[/img]

[spoiler]
General
Unique ID                                : 229013462299778664544189232726812781354 (0xAC4A6372D774A03299BC18067B0DEB2A)
Complete name                            : Amityville - Il risveglio - Amityville The Awakening (2017).H264.ita.eng.sub.ita.MIRCrewAmityville - Il risveglio - Amityville The Awakening (2017).H264.ita.eng.sub.ita.MIRCrew.mkv
Format                                   : Matroska
Format version                           : Version 2
File size                                : 1.34 GiB
Duration                                 : 1h 27mn
Overall bit rate                         : 2 190 Kbps
Movie name                               : MIRCrew
Encoded date                             : UTC 2018-01-03T10:33:08Z
Writing application                      : mkvmerge v5.4.0 ('Piper') built on Mar 10 2012 13:34:39
Writing library                          : Lavf55.12.0

Video
ID                                       : 1
Format                                   : AVC
Format/Info                              : Advanced Video Codec
Format profile                           : [email protected]
Format settings, CABAC                   : Yes
Format settings, ReFrames                : 4 frames
Muxing mode                              : Header stripping
Codec ID                                 : V_MPEG4/ISO/AVC
Duration                                 : 1h 27mn
Bit rate                                 : 1 300 Kbps
Width                                    : 720 pixels
Height                                   : 384 pixels
Display aspect ratio                     : 1.875
Frame rate mode                          : Variable
Frame rate                               : 24.000 fps
Color space                              : YUV
Chroma subsampling                       : 4:2:0
Bit depth                                : 8 bits
Scan type                                : Progressive
Bits/(Pixel*Frame)                       : 0.196
Stream size                              : 782 MiB (57%)
Title                                    : Amityville - Il risveglio - Amityville The Awakening (2017).H264.ita.eng.sub.ita.eng.MIRCrew
Writing library                          : x264 core 142 r2479 dd79a61
Encoding settings                        : cabac=1 / ref=3 / deblock=1:0:0 / analyse=0x3:0x113 / me=hex / subme=7 / psy=1 / psy_rd=1.00:0.00 / mixed_ref=1 / me_range=16 / chroma_me=1 / trellis=1 / 8x8dct=1 / cqm=0 / deadzone=21,11 / fast_pskip=1 / chroma_qp_offset=-2 / threads=3 / lookahead_threads=1 / sliced_threads=0 / nr=0 / decimate=1 / interlaced=0 / bluray_compat=0 / constrained_intra=0 / bframes=3 / b_pyramid=2 / b_adapt=1 / b_bias=0 / direct=1 / weightb=1 / open_gop=0 / weightp=2 / keyint=240 / keyint_min=24 / scenecut=40 / intra_refresh=0 / rc_lookahead=40 / rc=abr / mbtree=1 / bitrate=1300 / ratetol=1.0 / qcomp=0.60 / qpmin=0 / qpmax=69 / qpstep=4 / vbv_maxrate=62500 / vbv_bufsize=78125 / nal_hrd=none / filler=0 / ip_ratio=1.40 / aq=1:1.00
Language                                 : Italian
Default                                  : Yes
Forced                                   : No
Color primaries                          : BT.709-5, BT.1361, IEC 61966-2-4, SMPTE RP177
Transfer characteristics                 : BT.709-5, BT.1361
Matrix coefficients                      : BT.709-5, BT.1361, IEC 61966-2-4 709, SMPTE RP177

Audio #1
ID                                       : 2
Format                                   : AC-3
Format/Info                              : Audio Coding 3
Mode extension                           : CM (complete main)
Muxing mode                              : Header stripping
Codec ID                                 : A_AC3
Duration                                 : 1h 27mn
Bit rate mode                            : Constant
Bit rate                                 : 448 Kbps
Channel(s)                               : 6 channels
Channel positions                        : Front: L C R, Side: L R, LFE
Sampling rate                            : 48.0 KHz
Bit depth                                : 16 bits
Compression mode                         : Lossy
Delay relative to video                  : -5ms
Stream size                              : 280 MiB (20%)
Title                                    : Ita Ac3 5.1
Language                                 : Italian
Default                                  : Yes
Forced                                   : No

Audio #2
ID                                       : 3
Format                                   : AC-3
Format/Info                              : Audio Coding 3
Mode extension                           : CM (complete main)
Muxing mode                              : Header stripping
Codec ID                                 : A_AC3
Duration                                 : 1h 27mn
Bit rate mode                            : Constant
Bit rate                                 : 448 Kbps
Channel(s)                               : 6 channels
Channel positions                        : Front: L C R, Side: L R, LFE
Sampling rate                            : 48.0 KHz
Bit depth                                : 16 bits
Compression mode                         : Lossy
Delay relative to video                  : -5ms
Stream size                              : 280 MiB (20%)
Title                                    : Eng Ac3 5.1
Language                                 : English
Default                                  : No
Forced                                   : No

Menu
00:00:00.000                             : :(01)00:00:00:000
00:04:53.583                             : :(02)00:04:53:458
00:08:43.916                             : :(03)00:08:43:791
00:12:15.291                             : :(04)00:12:15:166
00:15:52.500                             : :(05)00:15:52:375
00:20:31.791                             : :(06)00:20:31:666
00:24:10.583                             : :(07)00:24:10:416
00:27:58.750                             : :(08)00:27:58:666
00:31:57.750                             : :(09)00:31:57:625
00:35:35.833                             : :(10)00:35:35:708
00:39:47.083                             : :(11)00:39:46:958
00:43:26.791                             : :(12)00:43:26:666
00:47:22.583                             : :(13)00:47:22:458
00:52:27.458                             : :(14)00:52:27:291
00:56:58.291                             : :(15)00:56:58:166
01:01:07.375                             : :(16)01:01:07:208
01:05:27.750                             : :(17)01:05:27:625
01:09:54.000                             : :(18)01:09:53:875
01:15:11.541                             : :(19)01:15:11:416
01:22:35.208                             : :(20)01:22:35:125



[/spoiler]

[/color]

Files list

- Amityville - Il risveglio - Amityville The Awakening (2017).H264.ita.eng.sub.ita.MIRCrew.ita.srt File size : 53.3 KB
- Amityville - Il risveglio - Amityville The Awakening (2017).H264.ita.eng.sub.ita.MIRCrew.mkv File size : 1.34 GB
- Amityville - Il risveglio - Amityville The Awakening (2017).H264.ita.eng.sub.ita.MIRCrew.srt File size : 58 B

Disqus