Chat
Users Online
+ 10 Guests online in the last 24 hours.

Welcome to our newest member, GeorgeHV
Ads
Torrent name: Empire Of The Wolves 2005 DVD Hindi GOPISAHI
File size: 293.45 MB
Seeds: 7
Leechs: 0
Categories: Movies SD
Torrent hash: b22d0a716da3dd85f429fb4536c7877efc4f3d1d
Social Share:
Uploader: gopisahi
Verified torrent:
    - http://ipv4.tracker.harry.lu/announce
    - http://ipv4.tracker.harry.lu:80/announce
    - http://163.172.180.68:80/announce
    - http://t.nyaatracker.com/announce
    - http://tracker.devil-torrents.pl:80/announce
    - http://tracker.devil-torrents.pl/announce
    - http://open.kickasstracker.com/announce
    - http://163.172.180.68/announce
    - http://t.nyaatracker.com:80/announce
    - http://retracker.mgts.by:80/announce
    - http://45.33.11.224/announce
    - http://tracker.torrentyorg.pl:80/announce
    - http://pt.lax.mx:80/announce
    - udp://tracker.coppersurfer.tk:6969/announce
    - udp://tracker.pirateparty.gr:6969/announce
Download Empire Of The Wolves 2005 DVD Hindi GOPISAHI
Download .torrent   Magnet Link
Torrent detail

Empire Of The Wolves 2005 DVD Hindi GOPISAHI

[center][img]https://2.bp.blogspot.com/-L3HRWGRoIdc/WlAr7A_w-_I/AAAAAAAARAs/dePGFtzLDWInmDZLnjBplC5ECMvNW1V-gCLcBGAs/s1600/MV5BMTYwNDM1MTY4MF5BMl5BanBnXkFtZTgwNzYyOTkwMzE%2540._V1_.jpg[/img]
Format                         : Matroska
Format version                 : Version 4 / Version 2
File size                      : 293 MiB
Duration                       : 1 h 45 min
Overall bit rate               : 388 kb/s
Movie name                     : Empire Of The Wolves 2005 

Video
Format                         : AVC
Codec ID                       : V_MPEG4/ISO/AVC
Duration                       : 1 h 45 min
Bit rate                       : 300 kb/s
Width                          : 1 178 pixels
Height                         : 530 pixels
Display aspect ratio           : 2.223
Original display aspect ratio  : 2.222
Frame rate mode                : Constant
Frame rate                     : 23.976 (24000/1001) FPS
Stream size                    : 227 MiB (77%)
Writing library                : x264 

Audio
Format                         : AAC
Duration                       : 1 h 42 min
Bit rate                       : 88.6 kb/s
Channel(s)                     : 6 channels
Channel positions              : Front: L C R, Side: L R, LFE
Sampling rate                  : 44.1 kHz
Frame rate                     : 43.066 FPS (1024 SPF)
Stream size                    : 64.9 MiB (22%)
Language                       : Hindi
[img]https://3.bp.blogspot.com/-uZ2e2XD6fzc/WlAriFopZ7I/AAAAAAAARAk/rJ_sNSE7Ywc3Mi7gsaX5apcMyTgDnT2lACLcBGAs/s1600/Empire%2BOf%2BThe%2BWolves%2B2005%2BDVD%2BHindi%2BGOPISAHI.mkv_thumbs.jpg[/img]
[img]https://4.bp.blogspot.com/-fT5m4v_2PFc/WlAriBh5PdI/AAAAAAAARAo/cy9maU39ybUBoyiArOUWxoTy4BS76ckywCLcBGAs/s1600/Empire%2BOf%2BThe%2BWolves%2B2005%2BDVD%2BHindi%2BGOPISAHI.mkv_snapshot_01.00.54.jpg[/img]
[img]https://4.bp.blogspot.com/-x9UvHMS44uk/WlArhSSPv9I/AAAAAAAARAg/3nECuYu9x88Xsy_E7Pj6lbbcCPnqRH7eQCLcBGAs/s1600/Empire%2BOf%2BThe%2BWolves%2B2005%2BDVD%2BHindi%2BGOPISAHI.mkv_snapshot_00.26.04.jpg[/img][/center]

Files list

- Empire Of The Wolves 2005 DVD Hindi GOPISAHI.mkv File size : 293.45 MB

Disqus