Chat
Users Online
+ 14 Guests online in the last 24 hours.

Welcome to our newest member, Oelksemo
Ads
Torrent name: Valerian and the City of a Thousand Planets - Valerian e la Città dei mille pianeti (2017).H264.ita
File size: 2.08 GB
Seeds: 14
Leechs: 166
Categories: Movies SD
Torrent hash: 8280996c4f292c523ad37339db87c795e729b6c5
Social Share:
Uploader: robbyrs
Verified torrent:
    - udp://tracker.coppersurfer.tk:6969/announce
    - udp://tracker.opentrackr.org:1337/announce
    - udp://tracker.pirateparty.gr:6969/announce
    - udp://tracker.zer0day.to:1337/announce
    - udp://p4p.arenabg.com:1337/announce
    - udp://p4p.arenabg.ch:1337/announce
    - udp://eddie4.nl:6969/announce
    - udp://tracker.leechers-paradise.org:6969/announce
    - udp://9.rarbg.me:2740/announce
    - udp://9.rarbg.to:2740/announce
    - udp://9.rarbg.com:2710/announce
    - http://bigfoot1942.sektori.org:6969/announce
    - udp://tracker.internetwarriors.net:1337/announce
    - udp://oscar.reyesleon.xyz:6969/announce
    - udp://tracker.cyberia.is:6969/announce
Download Valerian and the City of a Thousand Planets - Valerian e la Città dei mille pianeti (2017).H264.ita
Download .torrent   Magnet Link
Torrent detail

Valerian and the City of a Thousand Planets - Valerian e la Città dei mille pianeti (2017).H264.ita

Valerian and the City of a Thousand Planets - Valerian e la Città dei mille pianeti (2017).H264.italian.english.Ac3-5.1.sub.ita.NUita.eng.MIRCrew

[color=red][img]https://worldimages.gallery/images/2017/12/05/Vg6zm.png[/img]
NO FOUND ONLY ORIGINAL RELEASE

[img]https://worldimages.gallery/images/2017/09/02/4716a3153385da57f9bf0ad75d1cdd7a.gif[/img]

My release is always in double track audio italian and Original audio
for select it use VLC or dvd player home
not use wmp

SOTTOTITOLI IN SINCRO
SUBTITLE ON SINCRO

Valerian e la Città dei mille pianeti - Valerian and the City of a Thousand Planets (2017)

[img]https://worldimages.gallery/images/2018/01/06/BdJr8.png[/img]

[URL=https://www.imdb.com/title/tt2239822/][IMG]https://www.userlogos.org/files/logos/Sucka/imdb_new.png[/IMG][/URL]

[img]https://i.imgur.com/fGu1rKv.png[/img]

Titolo originale    Valérian et la Cité des mille planètes
Lingua originale    inglese, francese
Paese di produzione    Francia
Anno    2017
Durata    137 min
Genere    avventura, azione, fantascienza
Regia    Luc Besson
Soggetto    Pierre Christin, Jean-Claude Mézières (fumetto)
Sceneggiatura    Luc Besson
Produttore    Luc Besson, Virginie Besson-Silla
Casa di produzione    Stxfilms, Europacorp, Valérian SAS, TF1 Films Production
Distribuzione (Italia)    01 Distribution
Fotografia    Thierry Arbogast
Montaggio    Julien Rey
Effetti speciali    Philippe Hubin, Jean-Christophe Magnaud
Musiche    Alexandre Desplat, Sixlei
Scenografia    Hugues Tissandier
Costumi    Olivier Bériot

[img]https://i.imgur.com/W7kBqiE.png[/img]

    Dane DeHaan: Maggiore Valerian
    Cara Delevingne: Sergente Laureline
    Clive Owen: Comandante Arün Filitt
    Rihanna: Bubble
    Ethan Hawke: Jolly
    Sam Spruell: Generale Okto Bar
    Kris Wu: Capitano Neza
    Alain Chabat: Bob il pirata
    Mathieu Kassovitz: Camelot
    Herbie Hancock: Ministro della difesa
    Rutger Hauer: Presidente della Federazione umana

[img]https://i.imgur.com/bFK3ggF.png[/img]

Valerian e Laureline sono agenti speciali del governo dei territori umani, e devono mantenere l’ordine nell’universo. Valerian ha in mente qualcosa di più di un semplice rapporto lavorativo con la sua partner – proponendosi apertamente a lei. Ma la sua lunga storia con le donne, e i valori tradizionali di lei, fanno sì che vi sia un costante rifiuto.

[img]https://i.imgur.com/48xHWWH.png[/img]

A dark force threatens Alpha, a vast metropolis and home to species from a thousand planets. Special operatives Valerian and Laureline must race to identify the marauding menace and safeguard not just Alpha, but the future of the universe.

[img]https://i.imgur.com/K8bfNTy.png[/img]

[img]https://worldimages.gallery/images/2018/01/06/BdkFH.png[/img]
[img]https://worldimages.gallery/images/2018/01/06/Bdnb1.png[/img]
[img]https://worldimages.gallery/images/2018/01/06/BdIRO.png[/img]
[img]https://worldimages.gallery/images/2018/01/06/BdQrm.png[/img]
[img]https://worldimages.gallery/images/2018/01/06/BdeI3.png[/img]

[img]https://i.imgur.com/aVrMohH.png[/img]

[spoiler]
General
Unique ID                                : 5472759857399202241952144285774824151 (0x41E03E4B8FF17ADF0DBD8F77EEAC2D7)
Complete name                            : Valerian e la Città dei mille pianeti - Valerian and the City of a Thousand Planets (2017).H264.ita.eng.sub.ita.eng.MIRCrew.mkv
Format                                   : Matroska
Format version                           : Version 2
File size                                : 2.08 GiB
Duration                                 : 2h 16mn
Overall bit rate                         : 2 185 Kbps
Movie name                               : MIRCrew
Encoded date                             : UTC 2018-01-06 10:33:18
Writing application                      : Lavf54.63.100
Writing library                          : Lavf54.63.100
COPYRIGHT                                : robbyrs

Video
ID                                       : 1
Format                                   : AVC
Format/Info                              : Advanced Video Codec
Format profile                           : [email protected]
Format settings, CABAC                   : Yes
Format settings, ReFrames                : 2 frames
Codec ID                                 : V_MPEG4/ISO/AVC
Duration                                 : 2h 16mn
Bit rate                                 : 1 290 Kbps
Width                                    : 720 pixels
Height                                   : 304 pixels
Display aspect ratio                     : 2.40:1
Frame rate mode                          : Variable
Frame rate                               : 24.000 fps
Color space                              : YUV
Chroma subsampling                       : 4:2:0
Bit depth                                : 8 bits
Scan type                                : Progressive
Bits/(Pixel*Frame)                       : 0.246
Stream size                              : 1.19 GiB (57%)
Title                                    : Valerian.e.la.Città.dei.mille.pianeti.2017.iTA.ENG.Bluray.1080p.x264-DDNCREW
Writing library                          : x264 core 130 r2273
Encoding settings                        : cabac=1 / ref=2 / deblock=1:0:0 / analyse=0x1:0x131 / me=hex / subme=7 / psy=1 / psy_rd=1.00:0.00 / mixed_ref=0 / me_range=16 / chroma_me=1 / trellis=1 / 8x8dct=0 / cqm=0 / deadzone=21,11 / fast_pskip=1 / chroma_qp_offset=-2 / threads=3 / lookahead_threads=1 / sliced_threads=0 / nr=0 / decimate=1 / interlaced=0 / bluray_compat=0 / constrained_intra=0 / bframes=3 / b_pyramid=0 / b_adapt=1 / b_bias=0 / direct=3 / weightb=1 / open_gop=0 / weightp=2 / keyint=240 / keyint_min=24 / scenecut=40 / intra_refresh=0 / rc_lookahead=40 / rc=abr / mbtree=1 / bitrate=1290 / ratetol=1.0 / qcomp=0.60 / qpmin=10 / qpmax=69 / qpstep=4 / vbv_maxrate=24000 / vbv_bufsize=24000 / nal_hrd=none / ip_ratio=1.40 / aq=1:1.00
Language                                 : Italian
Default                                  : Yes
Forced                                   : No
DURATION                                 : 02:16:31.709000000
NUMBER_OF_FRAMES                         : 196601
NUMBER_OF_BYTES                          : 10653971525
_STATISTICS_WRITING_APP                  : mkvmerge v8.3.0 ('Over the Horizon') 64bit
_STATISTICS_WRITING_DATE_UTC             : 2018-01-03 04:43:44
_STATISTICS_TAGS                         : BPS DURATION NUMBER_OF_FRAMES NUMBER_OF_BYTES

Audio #1
ID                                       : 2
Format                                   : AC-3
Format/Info                              : Audio Coding 3
Mode extension                           : CM (complete main)
Codec ID                                 : A_AC3
Duration                                 : 2h 16mn
Bit rate mode                            : Constant
Bit rate                                 : 448 Kbps
Channel(s)                               : 6 channels
Channel positions                        : Front: L C R, Side: L R, LFE
Sampling rate                            : 48.0 KHz
Bit depth                                : 16 bits
Compression mode                         : Lossy
Delay relative to video                  : 1mn 5s
Stream size                              : 438 MiB (21%)
Title                                    : AC3 ITA
Language                                 : Italian
Default                                  : No
Forced                                   : No
DURATION                                 : 02:16:32.224000000
NUMBER_OF_FRAMES                         : 256007
NUMBER_OF_BYTES                          : 655377920
_STATISTICS_WRITING_APP                  : mkvmerge v8.3.0 ('Over the Horizon') 64bit
_STATISTICS_WRITING_DATE_UTC             : 2018-01-03 04:43:44
_STATISTICS_TAGS                         : BPS DURATION NUMBER_OF_FRAMES NUMBER_OF_BYTES

Audio #2
ID                                       : 3
Format                                   : AC-3
Format/Info                              : Audio Coding 3
Mode extension                           : CM (complete main)
Codec ID                                 : A_AC3
Duration                                 : 2h 16mn
Bit rate mode                            : Constant
Bit rate                                 : 448 Kbps
Channel(s)                               : 6 channels
Channel positions                        : Front: L C R, Side: L R, LFE
Sampling rate                            : 48.0 KHz
Bit depth                                : 16 bits
Compression mode                         : Lossy
Delay relative to video                  : 1mn 5s
Stream size                              : 438 MiB (21%)
Title                                    : AC3 ENG
Language                                 : English
Default                                  : No
Forced                                   : No
DURATION                                 : 02:16:32.224000000
NUMBER_OF_FRAMES                         : 256007
NUMBER_OF_BYTES                          : 655377920
_STATISTICS_WRITING_APP                  : mkvmerge v8.3.0 ('Over the Horizon') 64bit
_STATISTICS_WRITING_DATE_UTC             : 2018-01-03 04:43:44
_STATISTICS_TAGS                         : BPS DURATION NUMBER_OF_FRAMES NUMBER_OF_BYTES

Menu
00:00:00.000                             : :00:00:00.000
00:11:12.208                             : :00:11:12.208
00:20:10.500                             : :00:20:10.500
00:30:38.333                             : :00:30:38.333
00:41:21.541                             : :00:41:21.541
00:51:37.333                             : :00:51:37.333
01:01:54.917                             : :01:01:54.917
01:10:50.958                             : :01:10:50.958
01:20:27.500                             : :01:20:27.500
01:34:23.750                             : :01:34:23.750
01:44:35.083                             : :01:44:35.083
01:57:01.708                             : :01:57:01.708
02:06:18.208                             : :02:06:18.208



[/spoiler]

[/color]

Files list

- Valerian e la Città dei mille pianeti - Valerian and the City of a Thousand Planets (2017).H264.ita.eng.sub.ita.eng.MIRCrew.eng.srt File size : 103.37 KB
- Valerian e la Città dei mille pianeti - Valerian and the City of a Thousand Planets (2017).H264.ita.eng.sub.ita.eng.MIRCrew.ita.srt File size : 101.38 KB
- Valerian e la Città dei mille pianeti - Valerian and the City of a Thousand Planets (2017).H264.ita.eng.sub.ita.eng.MIRCrew.mkv File size : 2.08 GB
- Valerian e la Città dei mille pianeti - Valerian and the City of a Thousand Planets (2017).H264.ita.eng.sub.ita.eng.MIRCrew.NUita.srt File size : 104.12 KB
- Valerian e la Città dei mille pianeti - Valerian and the City of a Thousand Planets (2017).H264.ita.eng.sub.ita.eng.MIRCrew.srt File size : 635 B

Disqus