Chat
Users Online
+ 15 Guests online in the last 24 hours.

Welcome to our newest member, mzowwjwbjod
Ads
Torrent name: Miss Sloane - giochi di potere (2016).H264.italian.english.Ac3.sub.NUita.eng.MIRCrew
File size: 2.03 GB
Seeds: 14
Leechs: 164
Categories: Movies SD
Torrent hash: 3006c53efe63e09d8d054ab791fd782fec0c17c4
Social Share:
Uploader: robbyrs
Verified torrent:
    - udp://tracker.coppersurfer.tk:6969/announce
    - udp://tracker.opentrackr.org:1337/announce
    - udp://tracker.pirateparty.gr:6969/announce
    - udp://tracker.zer0day.to:1337/announce
    - udp://p4p.arenabg.com:1337/announce
    - udp://p4p.arenabg.ch:1337/announce
    - udp://eddie4.nl:6969/announce
    - udp://tracker.leechers-paradise.org:6969/announce
    - udp://9.rarbg.me:2740/announce
    - udp://9.rarbg.to:2740/announce
    - udp://9.rarbg.com:2710/announce
    - http://bigfoot1942.sektori.org:6969/announce
    - udp://tracker.internetwarriors.net:1337/announce
    - udp://oscar.reyesleon.xyz:6969/announce
    - udp://tracker.cyberia.is:6969/announce
Download Miss Sloane - giochi di potere (2016).H264.italian.english.Ac3.sub.NUita.eng.MIRCrew
Download .torrent   Magnet Link
Torrent detail

Miss Sloane - giochi di potere (2016).H264.italian.english.Ac3.sub.NUita.eng.MIRCrew

Miss Sloane -  giochi di potere (2016).H264.italian.english.Ac3.sub.NUita.eng.MIRCrew

[color=red][img]https://worldimages.gallery/images/2017/12/05/Vg6zm.png[/img]
NO FOUND ONLY ORIGINAL RELEASE

[img]https://worldimages.gallery/images/2017/09/02/4716a3153385da57f9bf0ad75d1cdd7a.gif[/img]

My release is always in double track audio italian and Original audio
for select it use VLC or dvd player home
not use wmp

Miss Sloane -  giochi di potere (2016)

[img]https://worldimages.gallery/images/2018/01/07/B7tbc.png[/img]

[URL=https://www.imdb.com/title/tt4540710/][IMG]https://www.userlogos.org/files/logos/Sucka/imdb_new.png[/IMG][/URL]

[img]https://i.imgur.com/fGu1rKv.png[/img]
 GENERE: Drammatico, Thriller
ANNO: 2016
REGIA: John Madden

PAESE: USA
DURATA: 132 Min
DISTRIBUZIONE: 01 Distribution e Leone Film Group

[img]https://i.imgur.com/W7kBqiE.png[/img]

Jessica Chastain, Gugu Mbatha-Raw, Alison Pill, Mark Strong, John Lithgow, Michael Stuhlbarg, Jake Lacy, Sam Waterston, Douglas Smith, Dylan Baker, Ennis Esmer

[img]https://i.imgur.com/bFK3ggF.png[/img]

Miss Sloane, il nuovo thriller politico del regista candidato Oscar John Madden, è la storia di una spietata lobbista sull'orlo dell'esaurimento, personale e professionale, che supera i limiti etici e legali pur di far approvare una controversa legge. Sollevando il velo sull'industria sotterranea e potente delle lobby, Miss Sloane porta alla luce le dinamiche e le strategie utilizzate per vincere al Congresso.

[img]https://i.imgur.com/48xHWWH.png[/img]

In the high-stakes world of political power-brokers, Elizabeth Sloane is the most sought after and formidable lobbyist in D.C. But when taking on the most powerful opponent of her career, she finds winning may come at too high a price. .   

[img]https://i.imgur.com/K8bfNTy.png[/img]

[img]https://worldimages.gallery/images/2018/01/07/B7g61.png[/img]
[img]https://worldimages.gallery/images/2018/01/07/B7rHO.png[/img]
[img]https://worldimages.gallery/images/2018/01/07/B7Dzm.png[/img]
[img]https://worldimages.gallery/images/2018/01/07/B7SF3.png[/img]


[img]https://i.imgur.com/aVrMohH.png[/img]

[spoiler]
General
Unique ID                                : 274336238499003966094303123394262178805 (0xCE633CD6FEFB981BD00101451F939BF5)
Complete name                            : Miss Sloane -  giochi di potere (2016).H264.ita.eng.sub.NUita.eng.MIRCrewMiss Sloane giochi di potere (2016).H264.ita.eng.sub.ita.eng.MIRCrew.mkv
Format                                   : Matroska
Format version                           : Version 2
File size                                : 2.03 GiB
Duration                                 : 2h 12mn
Overall bit rate                         : 2 195 Kbps
Movie name                               : MIRCrew
Encoded date                             : UTC 2018-01-04 15:41:37
Writing application                      : Lavf54.63.100
Writing library                          : Lavf54.63.100
COPYRIGHT                                : robbyrs

Video
ID                                       : 1
Format                                   : AVC
Format/Info                              : Advanced Video Codec
Format profile                           : [email protected]
Format settings, CABAC                   : Yes
Format settings, ReFrames                : 2 frames
Codec ID                                 : V_MPEG4/ISO/AVC
Duration                                 : 2h 12mn
Bit rate                                 : 1 300 Kbps
Width                                    : 720 pixels
Height                                   : 304 pixels
Display aspect ratio                     : 2.40:1
Frame rate mode                          : Variable
Frame rate                               : 24.000 fps
Color space                              : YUV
Chroma subsampling                       : 4:2:0
Bit depth                                : 8 bits
Scan type                                : Progressive
Bits/(Pixel*Frame)                       : 0.247
Stream size                              : 1.16 GiB (57%)
Writing library                          : x264 core 130 r2273
Encoding settings                        : cabac=1 / ref=2 / deblock=1:0:0 / analyse=0x1:0x131 / me=hex / subme=7 / psy=1 / psy_rd=1.00:0.00 / mixed_ref=0 / me_range=16 / chroma_me=1 / trellis=1 / 8x8dct=0 / cqm=0 / deadzone=21,11 / fast_pskip=1 / chroma_qp_offset=-2 / threads=3 / lookahead_threads=1 / sliced_threads=0 / nr=0 / decimate=1 / interlaced=0 / bluray_compat=0 / constrained_intra=0 / bframes=3 / b_pyramid=0 / b_adapt=1 / b_bias=0 / direct=3 / weightb=1 / open_gop=0 / weightp=2 / keyint=240 / keyint_min=24 / scenecut=40 / intra_refresh=0 / rc_lookahead=40 / rc=abr / mbtree=1 / bitrate=1300 / ratetol=1.0 / qcomp=0.60 / qpmin=10 / qpmax=69 / qpstep=4 / vbv_maxrate=24000 / vbv_bufsize=24000 / nal_hrd=none / ip_ratio=1.40 / aq=1:1.00
Language                                 : English
Default                                  : Yes
Forced                                   : No
DURATION                                 : 02:12:03.042000000
NUMBER_OF_FRAMES                         : 190153
NUMBER_OF_BYTES                          : 7252477485
_STATISTICS_WRITING_APP                  : mkvmerge v15.0.0 ('Duel with the Devil') 64-bit
_STATISTICS_WRITING_DATE_UTC             : 2017-12-25 13:01:14
_STATISTICS_TAGS                         : BPS DURATION NUMBER_OF_FRAMES NUMBER_OF_BYTES

Audio #1
ID                                       : 2
Format                                   : AC-3
Format/Info                              : Audio Coding 3
Mode extension                           : CM (complete main)
Codec ID                                 : A_AC3
Duration                                 : 2h 12mn
Bit rate mode                            : Constant
Bit rate                                 : 448 Kbps
Channel(s)                               : 6 channels
Channel positions                        : Front: L C R, Side: L R, LFE
Sampling rate                            : 48.0 KHz
Bit depth                                : 16 bits
Compression mode                         : Lossy
Delay relative to video                  : 1mn 5s
Stream size                              : 424 MiB (20%)
Language                                 : Italian
Default                                  : No
Forced                                   : No
DURATION                                 : 02:12:13.152000000
NUMBER_OF_FRAMES                         : 247911
NUMBER_OF_BYTES                          : 634652160
_STATISTICS_WRITING_APP                  : mkvmerge v15.0.0 ('Duel with the Devil') 64-bit
_STATISTICS_WRITING_DATE_UTC             : 2017-12-25 13:01:14
_STATISTICS_TAGS                         : BPS DURATION NUMBER_OF_FRAMES NUMBER_OF_BYTES

Audio #2
ID                                       : 3
Format                                   : AC-3
Format/Info                              : Audio Coding 3
Mode extension                           : CM (complete main)
Codec ID                                 : A_AC3
Duration                                 : 2h 12mn
Bit rate mode                            : Constant
Bit rate                                 : 448 Kbps
Channel(s)                               : 6 channels
Channel positions                        : Front: L C R, Side: L R, LFE
Sampling rate                            : 48.0 KHz
Bit depth                                : 16 bits
Compression mode                         : Lossy
Delay relative to video                  : 1mn 5s
Stream size                              : 424 MiB (20%)
Language                                 : English
Default                                  : No
Forced                                   : No
DURATION                                 : 02:12:03.104000000
NUMBER_OF_FRAMES                         : 742791
NUMBER_OF_BYTES                          : 1494495492
_STATISTICS_WRITING_APP                  : mkvmerge v15.0.0 ('Duel with the Devil') 64-bit
_STATISTICS_WRITING_DATE_UTC             : 2017-12-25 13:01:14
_STATISTICS_TAGS                         : BPS DURATION NUMBER_OF_FRAMES NUMBER_OF_BYTES

Menu
00:00:00.000                             : :00:00:00.000
00:03:17.374                             : :00:03:17.374
00:10:01.208                             : :00:10:01.208
00:14:32.458                             : :00:14:32.458
00:21:38.333                             : :00:21:38.333
00:27:22.958                             : :00:27:22.958
00:30:22.791                             : :00:30:22.791
00:35:38.458                             : :00:35:38.458
00:40:34.583                             : :00:40:34.583
00:45:33.917                             : :00:45:33.917
00:50:05.124                             : :00:50:05.124
00:56:52.249                             : :00:56:52.249
01:01:27.458                             : :01:01:27.458
01:04:56.666                             : :01:04:56.666
01:10:06.208                             : :01:10:06.208
01:15:52.000                             : :01:15:52.000
01:22:20.458                             : :01:22:20.458
01:31:11.625                             : :01:31:11.625
01:35:42.082                             : :01:35:42.082
01:41:42.333                             : :01:41:42.333
01:45:19.333                             : :01:45:19.333
01:54:23.917                             : :01:54:23.917
02:03:32.875                             : :02:03:32.875
02:07:54.333                             : :02:07:54.333


[/spoiler]

[/color]

Files list

- Miss Sloane giochi di potere (2016).H264.ita.eng.sub.ita.eng.MIRCrew.eng.srt File size : 199.38 KB
- Miss Sloane giochi di potere (2016).H264.ita.eng.sub.ita.eng.MIRCrew.mkv File size : 2.03 GB
- Miss Sloane giochi di potere (2016).H264.ita.eng.sub.ita.eng.MIRCrew.NUita.srt File size : 162.51 KB
- Miss Sloane giochi di potere (2016).H264.ita.eng.sub.ita.eng.MIRCrew.srt File size : 479 B

Disqus