Chat
Users Online
+ 15 Guests online in the last 24 hours.

Welcome to our newest member, Oelksemo
Ads
Torrent name: The.Shape.of.Water.2017.DVDScr.XVID.AC3.HQ.Hive-CM8
File size: 1.72 GB
Seeds: 1028
Leechs: 2120
Categories: Movies SD
Torrent hash: 82735463eae0844bd7416b262b9aec2025a8180a
Social Share:
Uploader: roflcopter2110
Verified torrent:
    - udp://9.rarbg.to:2710/announce
    - udp://eddie4.nl:6969/announce
    - udp://shadowshq.yi.org:6969/announce
    - udp://thetracker.org:80/announce
    - udp://tracker.coppersurfer.tk:6969
    - udp://tracker.leechers-paradise.org:6969
    - udp://tracker.opentrackr.org:1337
    - udp://tracker.zer0day.to:1337
    - udp://9.rarbg.com:2710/announce
    - udp://tracker.torrent.eu.org:451/announce
    - udp://tracker.cypherpunks.ru:6969/announce
    - udp://p4p.arenabg.com:1337/announce
Download The.Shape.of.Water.2017.DVDScr.XVID.AC3.HQ.Hive-CM8
Download .torrent   Magnet Link
Torrent detail

The.Shape.of.Water.2017.DVDScr.XVID.AC3.HQ.Hive-CM8

The.Shape.of.Water.2017.DVDScr.XVID.AC3.HQ.Hive-CM8

Thx Hive

CM8 Doing It Right The First Time

Source: a cool dude on the street
thx

Notes:
Since this title has a very good chance of winning it all and we dont want to interfere we waited till gross meets budget and give the movie a fair chance
Don´t forget watching a scr is not like the real thing, you should still all go to the cinema and support the Producers, thx
We especially sharing this for the people who cant visit the cinema due to illness or because it is a limited release that doesnt make it to their country,
so that they also can experience some award nominations.

Encode:
quality was nice, not much to do
enjoy

Screeners:
We are still missing downsizing,phantom thread,gr.showman,money in the world anyone want to share for the collection?
Don't post info public or on any blog its too risky, it has to be done safely and secure in private, and we have proven that we can do it.
Msg us [email protected] - we will respect your wishes
if you want to share with us in private it will stay private

Video: 720x384 @bitrate 1700 2pass
Audio: English Stereo
Sample: yes included

General
Complete name: The.Shape.of.Water.2017.DVDScr.XVID.AC3.HQ.Hive-CM8.avi
Format: AVI
Format/Info: Audio Video Interleave
File size: 1.71 GiB
Duration: 2h 2mn
Overall bit rate: 1 993 Kbps
Writing application: Nandub v1.0rc2
Writing library: Nandub build 1853/release

Video
ID: 0
Format: MPEG-4 Visual
Format profile: Advanced [email protected]
Format settings, BVOP: 2
Format settings, QPel: Yes
Format settings, GMC: No warppoints
Format settings, Matrix: Default (H.263)
Muxing mode: Packed bitstream
Codec ID: XVID
Codec ID/Hint: XviD
Duration: 2h 2mn
Bit rate: 1 725 Kbps
Width: 720 pixels
Height: 384 pixels
Display aspect ratio: 1.85:1
Frame rate: 30.000 fps
Color space: YUV
Chroma subsampling: 4:2:0
Bit depth: 8 bits
Scan type: Progressive
Compression mode: Lossy
Bits/(Pixel*Frame): 0.208
Stream size: 1.48 GiB (87%)
Writing library: XviD 1.2.1 (UTC 2008-12-04)

Audio
ID: 1
Format: AC-3
Format/Info: Audio Coding 3
Mode extension: CM (complete main)
Format settings, Endianness: Big
Codec ID: 2000
Duration: 2h 2mn
Bit rate mode: Constant
Bit rate: 256 Kbps
Channel(s): 2 channels
Channel positions: Front: L R
Sampling rate: 48.0 KHz
Bit depth: 16 bits
Compression mode: Lossy
Delay relative to video: 26ms
Stream size: 225 MiB (13%)
Alignment: Split accross interleaves
Interleave, duration: 33 ms (1.00 video frame)
Interleave, preload duration: 500 ms

Plot
At a top secret research facility in the 1960s, a lonely janitor forms a unique relationship with an amphibious creature that is being held in captivity.

COME FIND US WE DONT BITE

Screens:
https://i.imgur.com/vP985Ya.png
https://i.imgur.com/CAHJvxS.png
https://i.imgur.com/9QfzM2f.png
https://i.imgur.com/dNEiLjQ.png
https://i.imgur.com/cu6dB22.png

Files list

- sample.avi File size : 12.89 MB
- The.Shape.of.Water.2017.DVDScr.XVID.AC3.HQ.Hive-CM8.avi File size : 1.71 GB

Disqus