Chat
Users Online
+ 7 Guests online in the last 24 hours.

Welcome to our newest member, TimothyWhazy
Ads
Torrent name: My Cousin Rachel - Rachel (2017).H264.italian.english.Ac3-5.1.sub.ita.eng.MIRCrew
File size: 1.63 GB
Seeds: 16
Leechs: 63
Categories: Movies SD
Torrent hash: 1293d25a154cbb542b288e301f448bcffdbc51c3
Social Share:
Uploader: robbyrs
Verified torrent:
    - udp://tracker.coppersurfer.tk:6969/announce
    - udp://tracker.opentrackr.org:1337/announce
    - udp://tracker.pirateparty.gr:6969/announce
    - udp://tracker.zer0day.to:1337/announce
    - udp://p4p.arenabg.com:1337/announce
    - udp://p4p.arenabg.ch:1337/announce
    - udp://eddie4.nl:6969/announce
    - udp://tracker.leechers-paradise.org:6969/announce
    - udp://9.rarbg.me:2740/announce
    - udp://9.rarbg.to:2740/announce
    - udp://9.rarbg.com:2710/announce
    - http://bigfoot1942.sektori.org:6969/announce
    - udp://tracker.internetwarriors.net:1337/announce
    - udp://oscar.reyesleon.xyz:6969/announce
    - udp://tracker.cyberia.is:6969/announce
Download My Cousin Rachel - Rachel (2017).H264.italian.english.Ac3-5.1.sub.ita.eng.MIRCrew
Download .torrent   Magnet Link
Torrent detail

My Cousin Rachel - Rachel (2017).H264.italian.english.Ac3-5.1.sub.ita.eng.MIRCrew

My Cousin Rachel - Rachel (2017).H264.italian.english.Ac3-5.1.sub.ita.eng.MIRCrew

[color=red][img]https://worldimages.gallery/images/2017/12/05/Vg6zm.png[/img]
NO FOUND ONLY ORIGINAL RELEASE

[img]https://worldimages.gallery/images/2017/09/02/4716a3153385da57f9bf0ad75d1cdd7a.gif[/img]

My release is always in double track audio italian and Original audio
for select it use VLC or dvd player home
not use wmp

Rachel - My Cousin Rachel (2017)

[img]https://worldimages.gallery/images/2018/01/08/BXRui.png[/img]

[URL=https://www.imdb.com/title/tt4411596/][IMG]https://www.userlogos.org/files/logos/Sucka/imdb_new.png[/IMG][/URL]

[img]https://i.imgur.com/fGu1rKv.png[/img]

Titolo originale    My Cousin Rachel
Lingua originale    inglese
Paese di produzione    Regno Unito, Stati Uniti d'America
Anno    2017
Genere    drammatico, sentimentale
Regia    Roger Michell
Produttore    Kevin Loader
Casa di produzione    Fox Searchlight Pictures, Free Range Films
Musiche    Rael Jones

[img]https://i.imgur.com/W7kBqiE.png[/img]

    Rachel Weisz: Rachel Ashley
    Sam Claflin: Philip
    Iain Glen: Nick Kendall
    Holliday Grainger: Louise Kendall
    Andrew Knott: Joshua
    Poppy Lee Friar: Mary Pascoe
    Katherine Pearce: Belinda Pascoe
    Tristram Davies: Wellington
    Andrew Havill: Parson Pascoe
    Vicki Pepperdine: Mrs. Pascoe
    Bobby Scott Freeman: John
    Harrie Hayes: Tess
    Pierfrancesco Favino: Enrico Rainaldi

[img]https://i.imgur.com/bFK3ggF.png[/img]

Il giovane Philip, che era stato cresciuto come un figlio da Ambrose, il quale durante un viaggio in Italia gli scrive di essere gravemente ammalato. Raggiunta Firenze Philip scopre che Ambrose è morto e che Rachel, una cugina che aveva sposato da poco è già partita.

[img]https://i.imgur.com/48xHWWH.png[/img]

A young Englishman plots revenge against his late cousin's mysterious, beautiful wife, believing her responsible for his death. But his feelings become complicated as he finds himself falling under the beguiling spell of her charms.

[img]https://i.imgur.com/K8bfNTy.png[/img]

[img]https://worldimages.gallery/images/2018/01/08/BXXKG.png[/img]
[img]https://worldimages.gallery/images/2018/01/08/BXYl5.png[/img]
[img]https://worldimages.gallery/images/2018/01/08/BXvob.png[/img]

[img]https://i.imgur.com/aVrMohH.png[/img]

[spoiler]
General
Unique ID                                : 181955367363032113226477153639860668576 (0x88E3543CECD815559AECCB26FA1608A0)
Complete name                            : Rachel (2017).H264.ita.eng.sub.ita.eng-MIRCrewRachel (2017).H264.ita.eng.sub.ita.eng-MIRCrew.mkv
Format                                   : Matroska
Format version                           : Version 2
File size                                : 1.63 GiB
Duration                                 : 1h 46mn
Overall bit rate                         : 2 194 Kbps
Movie name                               : MIRCrew
Encoded date                             : UTC 2018-01-07 17:47:41
Writing application                      : mkvmerge v5.4.0 ('Piper') built on Mar 10 2012 13:34:39
Writing library                          : Lavf54.63.100
COPYRIGHT                                : robbyrs

Video
ID                                       : 1
Format                                   : AVC
Format/Info                              : Advanced Video Codec
Format profile                           : [email protected]
Format settings, CABAC                   : Yes
Format settings, ReFrames                : 2 frames
Muxing mode                              : Header stripping
Codec ID                                 : V_MPEG4/ISO/AVC
Duration                                 : 1h 46mn
Bit rate                                 : 1 300 Kbps
Width                                    : 720 pixels
Height                                   : 304 pixels
Display aspect ratio                     : 2.40:1
Frame rate mode                          : Variable
Frame rate                               : 23.976 fps
Color space                              : YUV
Chroma subsampling                       : 4:2:0
Bit depth                                : 8 bits
Scan type                                : Progressive
Bits/(Pixel*Frame)                       : 0.248
Stream size                              : 952 MiB (57%)
Title                                    : Rachel (2017).H264.ita.eng.sub.ita.eng-MIRCrew
Writing library                          : x264 core 130 r2273
Encoding settings                        : cabac=1 / ref=2 / deblock=1:0:0 / analyse=0x1:0x131 / me=hex / subme=7 / psy=1 / psy_rd=1.00:0.00 / mixed_ref=0 / me_range=16 / chroma_me=1 / trellis=1 / 8x8dct=0 / cqm=0 / deadzone=21,11 / fast_pskip=1 / chroma_qp_offset=-2 / threads=3 / lookahead_threads=1 / sliced_threads=0 / nr=0 / decimate=1 / interlaced=0 / bluray_compat=0 / constrained_intra=0 / bframes=3 / b_pyramid=0 / b_adapt=1 / b_bias=0 / direct=3 / weightb=1 / open_gop=0 / weightp=2 / keyint=230 / keyint_min=23 / scenecut=40 / intra_refresh=0 / rc_lookahead=40 / rc=abr / mbtree=1 / bitrate=1300 / ratetol=1.0 / qcomp=0.60 / qpmin=10 / qpmax=69 / qpstep=4 / vbv_maxrate=24000 / vbv_bufsize=24000 / nal_hrd=none / ip_ratio=1.40 / aq=1:1.00
Default                                  : Yes
Forced                                   : No
DURATION                                 : 01:46:07.945000000
NUMBER_OF_FRAMES                         : 152678
NUMBER_OF_BYTES                          : 6571016738
_STATISTICS_WRITING_APP                  : mkvmerge v9.6.0 ('Slave To Your Mind') 64bit
_STATISTICS_WRITING_DATE_UTC             : 2018-01-01 14:48:23
_STATISTICS_TAGS                         : BPS DURATION NUMBER_OF_FRAMES NUMBER_OF_BYTES

Audio #1
ID                                       : 2
Format                                   : AC-3
Format/Info                              : Audio Coding 3
Mode extension                           : CM (complete main)
Muxing mode                              : Header stripping
Codec ID                                 : A_AC3
Duration                                 : 1h 46mn
Bit rate mode                            : Constant
Bit rate                                 : 448 Kbps
Channel(s)                               : 6 channels
Channel positions                        : Front: L C R, Side: L R, LFE
Sampling rate                            : 48.0 KHz
Bit depth                                : 16 bits
Compression mode                         : Lossy
Delay relative to video                  : -5ms
Stream size                              : 340 MiB (20%)
Title                                    : Ita
Language                                 : Italian
Default                                  : No
Forced                                   : No
DURATION                                 : 01:46:08.864000000
NUMBER_OF_FRAMES                         : 199027
NUMBER_OF_BYTES                          : 509509120
_STATISTICS_WRITING_APP                  : mkvmerge v9.6.0 ('Slave To Your Mind') 64bit
_STATISTICS_WRITING_DATE_UTC             : 2018-01-01 14:48:23
_STATISTICS_TAGS                         : BPS DURATION NUMBER_OF_FRAMES NUMBER_OF_BYTES

Audio #2
ID                                       : 3
Format                                   : AC-3
Format/Info                              : Audio Coding 3
Mode extension                           : CM (complete main)
Muxing mode                              : Header stripping
Codec ID                                 : A_AC3
Duration                                 : 1h 46mn
Bit rate mode                            : Constant
Bit rate                                 : 448 Kbps
Channel(s)                               : 6 channels
Channel positions                        : Front: L C R, Side: L R, LFE
Sampling rate                            : 48.0 KHz
Bit depth                                : 16 bits
Compression mode                         : Lossy
Delay relative to video                  : -5ms
Stream size                              : 340 MiB (20%)
Title                                    : Eng
Language                                 : English
Default                                  : No
Forced                                   : No
DURATION                                 : 01:46:08.864000000
NUMBER_OF_FRAMES                         : 597081
NUMBER_OF_BYTES                          : 1201327040
_STATISTICS_WRITING_APP                  : mkvmerge v9.6.0 ('Slave To Your Mind') 64bit
_STATISTICS_WRITING_DATE_UTC             : 2018-01-01 14:48:23
_STATISTICS_TAGS                         : BPS DURATION NUMBER_OF_FRAMES NUMBER_OF_BYTES

Menu
00:00:00.000                             : :(01)00:00:00:000
00:02:58.678                             : :(02)00:02:58:678
00:07:00.378                             : :(03)00:07:00:378
00:10:28.586                             : :(04)00:10:28:586
00:15:20.419                             : :(05)00:15:20:419
00:19:11.692                             : :(06)00:19:11:692
00:23:50.971                             : :(07)00:23:50:971
00:31:10.034                             : :(08)00:31:10:034
00:33:23.167                             : :(09)00:33:23:167
00:38:23.801                             : :(10)00:38:23:801
00:41:37.578                             : :(11)00:41:37:578
00:45:18.424                             : :(12)00:45:18:424
00:52:34.151                             : :(13)00:52:34:151
00:56:19.793                             : :(14)00:56:19:793
00:59:30.275                             : :(15)00:59:30:275
01:03:29.138                             : :(16)01:03:29:138
01:10:56.335                             : :(17)01:10:56:335
01:17:54.961                             : :(18)01:17:54:961
01:21:38.518                             : :(19)01:21:38:518
01:26:31.686                             : :(20)01:26:31:686
01:28:48.156                             : :(21)01:28:48:156
01:33:51.292                             : :(22)01:33:51:292
01:39:14.114                             : :(23)01:39:14:114
01:41:29.416                             : :(24)01:41:29:416
01:46:08.612                             : :(25)01:46:08:612


[/spoiler]

[/color]

Files list

- Rachel (2017).H264.ita.eng.sub.ita.eng-MIRCrew.eng.srt File size : 95.59 KB
- Rachel (2017).H264.ita.eng.sub.ita.eng-MIRCrew.ita.srt File size : 76.36 KB
- Rachel (2017).H264.ita.eng.sub.ita.eng-MIRCrew.mkv File size : 1.63 GB

Disqus