Chat
Users Online
+ 11 Guests online in the last 24 hours.

Welcome to our newest member, kwmzvhqozph
Ads
Torrent name: Goon Last of the Enforcers (2017).H264.italian.english.Ac3-5.1.sub.ita.eng.MIRCrew
File size: 1.55 GB
Seeds: 11
Leechs: 32
Categories: Movies SD
Torrent hash: 68e36d02b850fc58ef998cbe0f39ace811a662df
Social Share:
Uploader: robbyrs
Verified torrent:
    - udp://tracker.coppersurfer.tk:6969/announce
    - udp://tracker.opentrackr.org:1337/announce
    - udp://tracker.pirateparty.gr:6969/announce
    - udp://tracker.zer0day.to:1337/announce
    - udp://p4p.arenabg.com:1337/announce
    - udp://p4p.arenabg.ch:1337/announce
    - udp://eddie4.nl:6969/announce
    - udp://tracker.leechers-paradise.org:6969/announce
    - udp://9.rarbg.me:2740/announce
    - udp://9.rarbg.to:2740/announce
    - udp://9.rarbg.com:2710/announce
    - http://bigfoot1942.sektori.org:6969/announce
    - udp://tracker.internetwarriors.net:1337/announce
    - udp://oscar.reyesleon.xyz:6969/announce
    - udp://tracker.cyberia.is:6969/announce
Download Goon Last of the Enforcers (2017).H264.italian.english.Ac3-5.1.sub.ita.eng.MIRCrew
Download .torrent   Magnet Link
Torrent detail

Goon Last of the Enforcers (2017).H264.italian.english.Ac3-5.1.sub.ita.eng.MIRCrew

Goon Last of the Enforcers (2017).H264.italian.english.Ac3-5.1.sub.ita.eng.MIRCrew

[color=red][img]https://worldimages.gallery/images/2017/12/05/Vg6zm.png[/img]
NO FOUND ONLY ORIGINAL RELEASE

[img]https://worldimages.gallery/images/2017/09/02/4716a3153385da57f9bf0ad75d1cdd7a.gif[/img]

My release is always in double track audio italian and Original audio
for select it use VLC or dvd player home
not use wmp

Goon Last of the Enforcers (2017)

[img]https://worldimages.gallery/images/2018/01/09/Bjg6b.png[/img]

[URL=https://www.imdb.com/title/tt2417712/][IMG]https://www.userlogos.org/files/logos/Sucka/imdb_new.png[/IMG][/URL]

[img]https://i.imgur.com/fGu1rKv.png[/img]

Prima data di uscita: 17 marzo 2017 (Canada)
Regista: Jay Baruchel
Botteghino: 1,2 milioni CAD
Sceneggiatura: Jay Baruchel, Jesse Chabot
Produttori: Andre Rouleau, David Gross

[img]https://i.imgur.com/W7kBqiE.png[/img]

Seann William Scott
Doug Glatt
Elisha Cuthbert
Mary
Jay Baruchel
Pat
Liev Schreiber
Ross Rhea
Alison Pill
Eva
Ricerche correlate
Visualizza altri 15 elementi
Goon
2011
Piccoli grandi eroi
1994
Slap Shot 2. Sfida sul ghiaccio
2002
Stoffa da campioni
1992
Ducks ‑ Una squadra...

[img]https://i.imgur.com/bFK3ggF.png[/img]

La trama di Goon: Last of Enforces è incentrata sull'ex giocatore di hockey Doug "The Thug" Glatt, che si è rifatto una vita ed una famiglia dopo essersi ritirato dalla carriera sportiva per i troppi infortuni. Ora è un consulente assicurativo con un figlio in arrivo, ma torna alla sua vecchia vita quando il suo nemico di sempre, Andres Cain, minaccia di gettare il futuro della sua squadra nel fango.

[img]https://i.imgur.com/48xHWWH.png[/img]

A hockey player plagued by injuries is confronted with the possibility of retirement when a tough new player challenges his status as the league's top enforcer.

[img]https://i.imgur.com/K8bfNTy.png[/img]

[img]https://worldimages.gallery/images/2018/01/09/Bj8r4.png[/img]
[img]https://worldimages.gallery/images/2018/01/09/Bj0QE.png[/img]
[img]https://worldimages.gallery/images/2018/01/09/Bj27G.png[/img]
[img]https://worldimages.gallery/images/2018/01/09/BjKh5.png[/img]


[img]https://i.imgur.com/aVrMohH.png[/img]

[spoiler]
General
Unique ID                                : 243401461581148721394381482138983184549 (0xB71D6A950A54D4D59E20700E72C7B8A5)
Complete name                            : Goon Last of the Enforcers (2017).H264.ita.eng.sub.ita.eng-MIRcrewGoon Last of the Enforcers (2017).H264.ita.eng.sub.ita.eng-MIRcrew.mkv
Format                                   : Matroska
Format version                           : Version 2
File size                                : 1.54 GiB
Duration                                 : 1h 41mn
Overall bit rate                         : 2 189 Kbps
Movie name                               : MIRCrew
Encoded date                             : UTC 2018-01-08 11:15:39
Writing application                      : mkvmerge v5.4.0 ('Piper') built on Mar 10 2012 13:34:39
Writing library                          : Lavf54.63.100
COPYRIGHT                                : robbyrs

Video
ID                                       : 1
Format                                   : AVC
Format/Info                              : Advanced Video Codec
Format profile                           : [email protected]
Format settings, CABAC                   : Yes
Format settings, ReFrames                : 2 frames
Muxing mode                              : Header stripping
Codec ID                                 : V_MPEG4/ISO/AVC
Duration                                 : 1h 41mn
Bit rate                                 : 1 300 Kbps
Width                                    : 720 pixels
Height                                   : 300 pixels
Display aspect ratio                     : 2.40:1
Original display aspect ratio            : 2.40:1
Frame rate mode                          : Variable
Frame rate                               : 23.976 fps
Color space                              : YUV
Chroma subsampling                       : 4:2:0
Bit depth                                : 8 bits
Scan type                                : Progressive
Bits/(Pixel*Frame)                       : 0.251
Stream size                              : 903 MiB (57%)
Title                                    : Goon Last of the Enforcers (2017).H264.ita.eng.sub.ita.eng-MIRcrew
Writing library                          : x264 core 130 r2273
Encoding settings                        : cabac=1 / ref=2 / deblock=1:0:0 / analyse=0x1:0x131 / me=hex / subme=7 / psy=1 / psy_rd=1.00:0.00 / mixed_ref=0 / me_range=16 / chroma_me=1 / trellis=1 / 8x8dct=0 / cqm=0 / deadzone=21,11 / fast_pskip=1 / chroma_qp_offset=-2 / threads=3 / lookahead_threads=1 / sliced_threads=0 / nr=0 / decimate=1 / interlaced=0 / bluray_compat=0 / constrained_intra=0 / bframes=3 / b_pyramid=0 / b_adapt=1 / b_bias=0 / direct=3 / weightb=1 / open_gop=0 / weightp=2 / keyint=230 / keyint_min=23 / scenecut=40 / intra_refresh=0 / rc_lookahead=40 / rc=abr / mbtree=1 / bitrate=1300 / ratetol=1.0 / qcomp=0.60 / qpmin=10 / qpmax=69 / qpstep=4 / vbv_maxrate=24000 / vbv_bufsize=24000 / nal_hrd=none / ip_ratio=1.40 / aq=1:1.00
Language                                 : Italian
Default                                  : Yes
Forced                                   : No
DURATION                                 : 01:41:02.974000000
NUMBER_OF_FRAMES                         : 145366
NUMBER_OF_BYTES                          : 6989274789
_STATISTICS_WRITING_APP                  : mkvmerge v8.3.0 ('Over the Horizon') 64bit
_STATISTICS_WRITING_DATE_UTC             : 2017-12-31 14:14:12
_STATISTICS_TAGS                         : BPS DURATION NUMBER_OF_FRAMES NUMBER_OF_BYTES

Audio #1
ID                                       : 2
Format                                   : AC-3
Format/Info                              : Audio Coding 3
Mode extension                           : CM (complete main)
Muxing mode                              : Header stripping
Codec ID                                 : A_AC3
Duration                                 : 1h 41mn
Bit rate mode                            : Constant
Bit rate                                 : 448 Kbps
Channel(s)                               : 6 channels
Channel positions                        : Front: L C R, Side: L R, LFE
Sampling rate                            : 48.0 KHz
Bit depth                                : 16 bits
Compression mode                         : Lossy
Delay relative to video                  : -5ms
Stream size                              : 324 MiB (20%)
Title                                    : Ita
Language                                 : Italian
Default                                  : Yes
Forced                                   : No
DURATION                                 : 01:41:03.072000000
NUMBER_OF_FRAMES                         : 189471
NUMBER_OF_BYTES                          : 339532032
_STATISTICS_WRITING_APP                  : mkvmerge v8.3.0 ('Over the Horizon') 64bit
_STATISTICS_WRITING_DATE_UTC             : 2017-12-31 14:14:12
_STATISTICS_TAGS                         : BPS DURATION NUMBER_OF_FRAMES NUMBER_OF_BYTES

Audio #2
ID                                       : 3
Format                                   : AC-3
Format/Info                              : Audio Coding 3
Mode extension                           : CM (complete main)
Muxing mode                              : Header stripping
Codec ID                                 : A_AC3
Duration                                 : 1h 41mn
Bit rate mode                            : Constant
Bit rate                                 : 448 Kbps
Channel(s)                               : 6 channels
Channel positions                        : Front: L C R, Side: L R, LFE
Sampling rate                            : 48.0 KHz
Bit depth                                : 16 bits
Compression mode                         : Lossy
Delay relative to video                  : -5ms
Stream size                              : 324 MiB (20%)
Title                                    : Eng
Language                                 : English
Default                                  : No
Forced                                   : No
DURATION                                 : 01:41:03.040000000
NUMBER_OF_FRAMES                         : 189470
NUMBER_OF_BYTES                          : 485043200
_STATISTICS_WRITING_APP                  : mkvmerge v8.3.0 ('Over the Horizon') 64bit
_STATISTICS_WRITING_DATE_UTC             : 2017-12-31 14:14:12
_STATISTICS_TAGS                         : BPS DURATION NUMBER_OF_FRAMES NUMBER_OF_BYTES




[/spoiler]

[/color]

Files list

- Goon Last of the Enforcers (2017).H264.ita.eng.sub.ita.eng-MIRcrew.eng.srt File size : 130.45 KB
- Goon Last of the Enforcers (2017).H264.ita.eng.sub.ita.eng-MIRcrew.ita.srt File size : 116.17 KB
- Goon Last of the Enforcers (2017).H264.ita.eng.sub.ita.eng-MIRcrew.mkv File size : 1.54 GB
- Goon Last of the Enforcers (2017).H264.ita.eng.sub.ita.eng-MIRcrew.srt File size : 394 B

Disqus