Chat
Users Online
+ 15 Guests online in the last 24 hours.

Welcome to our newest member, mzowwjwbjod
Ads
Torrent name: The Gruffalo's Child 2011 720p BluRay Dual Audio English Hindi GOPISAHI
File size: 126.41 MB
Seeds: 0
Leechs: 0
Categories: Movies HD
Torrent hash: a60be2dc2febdb2af7b5e989299b5d78a5a12a93
Social Share:
Uploader: gopisahi
Verified torrent:
    - http://ipv4.tracker.harry.lu/announce
    - http://ipv4.tracker.harry.lu:80/announce
    - http://163.172.180.68:80/announce
    - http://t.nyaatracker.com/announce
    - http://tracker.devil-torrents.pl:80/announce
    - http://tracker.devil-torrents.pl/announce
    - http://open.kickasstracker.com/announce
    - http://163.172.180.68/announce
    - http://t.nyaatracker.com:80/announce
    - http://retracker.mgts.by:80/announce
    - http://45.33.11.224/announce
    - http://tracker.torrentyorg.pl:80/announce
    - http://pt.lax.mx:80/announce
    - udp://tracker.coppersurfer.tk:6969/announce
    - udp://tracker.pirateparty.gr:6969/announce
Download The Gruffalo's Child 2011 720p BluRay Dual Audio English Hindi GOPISAHI
Download .torrent   Magnet Link
Torrent detail

The Gruffalo's Child 2011 720p BluRay Dual Audio English Hindi GOPISAHI

[center][img]https://2.bp.blogspot.com/-8Idfy62xFM0/Wlg4tjc2kWI/AAAAAAAARRI/NVqJzHGNC_w3sbn4ooywkrtDyHkt0xa2wCLcBGAs/s1600/51qZtWkivFL._SX342_.jpg[/img]
Format                         : Matroska
Format version                 : Version 4 / Version 2
File size                      : 126 MiB
Duration                       : 26 min 41 s
Overall bit rate               : 662 kb/s
Movie name                     : The Gruffalo's Child 2011 GOPISAHI

Video
Format                         : AVC
Codec ID                       : V_MPEG4/ISO/AVC
Duration                       : 26 min 2 s
Bit rate                       : 500 kb/s
Width                          : 1 280 pixels
Height                         : 720 pixels
Display aspect ratio           : 16:9
Frame rate mode                : Constant
Frame rate                     : 25.000 FPS
Stream size                    : 93.1 MiB (74%)
Title                          : GOPISAHI
Writing library                : x264 core 148 r2708 86b7198


Audio #1
Format                         : AAC
Duration                       : 26 min 41 s
Bit rate                       : 85.0 kb/s
Channel(s)                     : 6 channels
Channel positions              : Front: L C R, Side: L R, LFE
Sampling rate                  : 44.1 kHz
Frame rate                     : 43.066 FPS (1024 SPF)
Stream size                    : 16.2 MiB (13%)
Title                          : GOPISAHI
Language                       : Hindi

Audio #2  
Format                         : AAC
Duration                       : 26 min 41 s
Bit rate                       : 86.6 kb/s
Channel(s)                     : 6 channels
Channel positions              : Front: L C R, Side: L R, LFE
Sampling rate                  : 44.1 kHz
Frame rate                     : 43.066 FPS (1024 SPF)
Stream size                    : 16.5 MiB (13%)
Title                          : GOPISAHI
Language                       : English
[img]https://3.bp.blogspot.com/-tADknJNCKCY/Wlg4sPfrSfI/AAAAAAAARRE/aYlLJCmTf541vqOOhZwaXqpMe-2OioKXQCLcBGAs/s1600/The%2BGruffalo%2527s%2BChild%2B2011%2B720p%2BBluRay%2BDual%2BAudio%2BEnglish%2BHindi%2BGOPISAHI.mkv_thumbs.jpg[/img]
[img]https://1.bp.blogspot.com/-3LOCzDY08DM/Wlg4lEy6S8I/AAAAAAAARQ8/UQRGiHQB7ZQ2FPfldDV4WxVuteDSVDU7wCLcBGAs/s1600/The%2BGruffalo%2527s%2BChild%2B2011%2B720p%2BBluRay%2BDual%2BAudio%2BEnglish%2BHindi%2BGOPISAHI.mkv_snapshot_17.24.jpg[/img]
[img]https://4.bp.blogspot.com/-Uu3r8whQrb8/Wlg4m0OII-I/AAAAAAAARRA/Fzu0PGr4l7Ao2jhcrTal8WidQMSqvWWdwCLcBGAs/s1600/The%2BGruffalo%2527s%2BChild%2B2011%2B720p%2BBluRay%2BDual%2BAudio%2BEnglish%2BHindi%2BGOPISAHI.mkv_snapshot_10.06.jpg[/img][/center]

Files list

- The Gruffalo's Child 2011 720p BluRay Dual Audio English Hindi GOPISAHI.mkv File size : 126.41 MB

Disqus