Chat
Users Online
+ 14 Guests online in the last 24 hours.

Welcome to our newest member, KafaSi
Ads
Torrent name: Haseena Parkar 2017 HD Dual Audio English Hindi GOPISAHI
File size: 496.36 MB
Seeds: 0
Leechs: 0
Categories: Movies HD
Torrent hash: 66a6961736758cfd49e82b7ad45c4265e54292b7
Social Share:
Uploader: gopisahi
Verified torrent:
    - http://ipv4.tracker.harry.lu/announce
    - http://ipv4.tracker.harry.lu:80/announce
    - http://163.172.180.68:80/announce
    - http://t.nyaatracker.com/announce
    - http://tracker.devil-torrents.pl:80/announce
    - http://tracker.devil-torrents.pl/announce
    - http://open.kickasstracker.com/announce
    - http://163.172.180.68/announce
    - http://t.nyaatracker.com:80/announce
    - http://retracker.mgts.by:80/announce
    - http://45.33.11.224/announce
    - http://tracker.torrentyorg.pl:80/announce
    - http://pt.lax.mx:80/announce
    - udp://tracker.coppersurfer.tk:6969/announce
    - udp://tracker.pirateparty.gr:6969/announce
Download Haseena Parkar 2017 HD Dual Audio English Hindi GOPISAHI
Download .torrent   Magnet Link
Torrent detail

Haseena Parkar 2017 HD Dual Audio English Hindi GOPISAHI

[center][img]https://2.bp.blogspot.com/-InbZo2L-y1M/WlhRdTlPJZI/AAAAAAAARSg/6MAfM9eM6j88_oeLIafELCThaQMRVNDPACLcBGAs/s1600/haseena-the-queen-of-mumbai-poster-2.jpg[/img]
Format                         : Matroska
Format version                 : Version 4 / Version 2
File size                      : 496 MiB
Duration                       : 1 h 57 min
Overall bit rate               : 590 kb/s

Video
Format                         : AVC
Codec ID                       : V_MPEG4/ISO/AVC
Duration                       : 1 h 57 min
Bit rate                       : 500 kb/s
Width                          : 1 280 pixels
Height                         : 544 pixels
Display aspect ratio           : 2.35:1
Frame rate mode                : Constant
Frame rate                     : 23.976 (24000/1001) FPS
Stream size                    : 420 MiB (85%)
Writing library                : x264 core 148 r2708 86b7198

Audio
Format                         : AAC
Duration                       : 1 h 57 min
Bit rate                       : 88.1 kb/s
Channel(s)                     : 6 channels
Channel positions              : Front: L C R, Side: L R, LFE
Sampling rate                  : 44.1 kHz
Frame rate                     : 43.066 FPS (1024 SPF)
Stream size                    : 74.1 MiB (15%)
[img]https://3.bp.blogspot.com/-mOiMi-owr3E/WlhQfeMAU3I/AAAAAAAARSI/0aLbZRYoWNQ-3M9JiaEa8Wmsb2jSSaTyQCLcBGAs/s1600/Haseena%2BParkar%2B2017%2BHD%2BDual%2BAudio%2BEnglish%2BHindi%2BGOPISAHI.mkv_thumbs.jpg[/img]
[img]https://2.bp.blogspot.com/-7jMOSP5gDGc/WlhQhow4s9I/AAAAAAAARSQ/K4btD--ZNYcJCv9m1YCS2YNxyPa92yw5ACLcBGAs/s1600/Haseena%2BParkar%2B2017%2BHD%2BDual%2BAudio%2BEnglish%2BHindi%2BGOPISAHI.mkv_snapshot_01.09.36.jpg[/img]
[img]https://4.bp.blogspot.com/-PEVGh8Bkb_s/WlhQgb36kDI/AAAAAAAARSM/FqQv0GZYJUg3K0ICN3r1qbOuS7a_GMBbgCLcBGAs/s1600/Haseena%2BParkar%2B2017%2BHD%2BDual%2BAudio%2BEnglish%2BHindi%2BGOPISAHI.mkv_snapshot_00.37.23.jpg[/img][/center]

Files list

- Haseena Parkar 2017 HD Dual Audio English Hindi GOPISAHI.mkv File size : 496.36 MB

Disqus