Chat
Users Online
+ 10 Guests online in the last 24 hours.

Welcome to our newest member, YJRichard
Ads
Torrent name: Bank Chor 2017 720p Esub HD Hindi GOPISAHI
File size: 506.68 MB
Seeds: 0
Leechs: 0
Categories: Movies HD
Torrent hash: bcfbcebaa297b6509287a1c1317bb22ccd14cc91
Social Share:
Uploader: gopisahi
Verified torrent:
    - http://ipv4.tracker.harry.lu/announce
    - http://ipv4.tracker.harry.lu:80/announce
    - http://163.172.180.68:80/announce
    - http://t.nyaatracker.com/announce
    - http://tracker.devil-torrents.pl:80/announce
    - http://tracker.devil-torrents.pl/announce
    - http://open.kickasstracker.com/announce
    - http://163.172.180.68/announce
    - http://t.nyaatracker.com:80/announce
    - http://retracker.mgts.by:80/announce
    - http://45.33.11.224/announce
    - http://tracker.torrentyorg.pl:80/announce
    - http://pt.lax.mx:80/announce
    - udp://tracker.coppersurfer.tk:6969/announce
    - udp://tracker.pirateparty.gr:6969/announce
Download Bank Chor 2017 720p Esub HD Hindi GOPISAHI
Download .torrent   Magnet Link
Torrent detail

Bank Chor 2017 720p Esub HD Hindi GOPISAHI

[center][img]https://1.bp.blogspot.com/-LZL72ARXGK8/Wlif8RWmqrI/AAAAAAAARUA/V662aW1JiWYLia3Zo4oYM-5Dms3_IV7cgCLcBGAs/s1600/ddf78e85692d5f62534b0a886dbed68c.jpg[/img]
Format                         : Matroska
Format version                 : Version 4 / Version 2
File size                      : 507 MiB
Duration                       : 2 h 0 min
Overall bit rate               : 589 kb/s
Movie name                     : Bank Chor 2017 

Video
Format                         : AVC
Codec ID                       : V_MPEG4/ISO/AVC
Duration                       : 2 h 0 min
Bit rate                       : 500 kb/s
Width                          : 1 280 pixels
Height                         : 532 pixels
Display aspect ratio           : 2.40:1
Frame rate mode                : Constant
Frame rate                     : 23.976 (24000/1001) FPS
Stream size                    : 430 MiB (85%)
Writing library                : x264

Audio
Format                         : AAC
Duration                       : 2 h 0 min
Bit rate                       : 86.9 kb/s
Channel(s)                     : 6 channels
Channel positions              : Front: L C R, Side: L R, LFE
Sampling rate                  : 44.1 kHz
Frame rate                     : 43.066 FPS (1024 SPF)
Stream size                    : 74.8 MiB (15%)
Language                       : Hindi 

Text
Language                       : English
[img]https://4.bp.blogspot.com/-1PmCcASAVuw/Wlif7RJEH5I/AAAAAAAART4/XTrQPXQ3I2oeCRcdNspjrXKoPTZTzS_NACLcBGAs/s1600/Bank%2BChor%2B2017%2B720p%2BEsub%2BHD%2BHindi%2BGOPISAHI.mkv_thumbs.jpg[/img]
[img]https://4.bp.blogspot.com/-lHyVZpgl3xs/Wlif4aqkrcI/AAAAAAAART0/gjszQmeEOBoC1Kfi-FBREqO08FE4t2CaQCLcBGAs/s1600/Bank%2BChor%2B2017%2B720p%2BEsub%2BHD%2BHindi%2BGOPISAHI.mkv_snapshot_01.18.31.jpg[/img][/center]

Files list

- Bank Chor 2017 720p Esub HD Hindi GOPISAHI.mkv File size : 506.68 MB

Disqus