Chat
Users Online
+ 7 Guests online in the last 24 hours.

Welcome to our newest member, Gustavoreide
Ads
Torrent name: Power Rangers Samurai Clash Of The Red Rangers 2013 HD Dual Audio English Hindi GOPISAHI
File size: 290.76 MB
Seeds: 7
Leechs: 0
Categories: Movies HD
Torrent hash: b2b522b88b033b48d3bd6d62bdd6a6b3746795a1
Social Share:
Uploader: gopisahi
Verified torrent:
    - http://ipv4.tracker.harry.lu/announce
    - http://ipv4.tracker.harry.lu:80/announce
    - http://163.172.180.68:80/announce
    - http://t.nyaatracker.com/announce
    - http://tracker.devil-torrents.pl:80/announce
    - http://tracker.devil-torrents.pl/announce
    - http://open.kickasstracker.com/announce
    - http://163.172.180.68/announce
    - http://t.nyaatracker.com:80/announce
    - http://retracker.mgts.by:80/announce
    - http://45.33.11.224/announce
    - http://tracker.torrentyorg.pl:80/announce
    - http://pt.lax.mx:80/announce
    - udp://tracker.coppersurfer.tk:6969/announce
    - udp://tracker.pirateparty.gr:6969/announce
Download Power Rangers Samurai Clash Of The Red Rangers 2013 HD Dual Audio English Hindi GOPISAHI
Download .torrent   Magnet Link
Torrent detail

Power Rangers Samurai Clash Of The Red Rangers 2013 HD Dual Audio English Hindi GOPISAHI

[center][img]https://1.bp.blogspot.com/-56OlohhSkK0/WlmFA9HPwvI/AAAAAAAARU4/tGmNETr2B_oos8TA1kGE_wqoY_kG4K6UACLcBGAs/s1600/Power%2BRangers%2BClash%2BOf%2BThe%2BRed%2BRangers%2B-%2B2012.jpg[/img]
Format                         : Matroska
Format version                 : Version 4 / Version 2
File size                      : 291 MiB
Duration                       : 45 min 59 s
Overall bit rate               : 884 kb/s
Movie name                     : Power Rangers Samurai Clash Of The Red Rangers 2013 GOPISAHI

Video
Format                         : AVC
Codec ID                       : V_MPEG4/ISO/AVC
Duration                       : 45 min 59 s
Bit rate                       : 700 kb/s
Width                          : 1 280 pixels
Height                         : 720 pixels
Display aspect ratio           : 16:9
Frame rate mode                : Constant
Frame rate                     : 23.976 (24000/1001) FPS
Stream size                    : 230 MiB (79%)
Writing library                : x264 

Audio #1
Format                         : AAC
Duration                       : 45 min 59 s
Bit rate                       : 86.3 kb/s
Channel(s)                     : 6 channels
Channel positions              : Front: L C R, Side: L R, LFE
Sampling rate                  : 44.1 kHz
Frame rate                     : 43.066 FPS (1024 SPF)
Stream size                    : 28.4 MiB (10%)
Language                       : English

Audio #2
Format                         : AAC
Duration                       : 45 min 59 s
Bit rate                       : 96.0 kb/s
Channel(s)                     : 6 channels
Channel positions              : Front: L C R, Side: L R, LFE
Sampling rate                  : 44.1 kHz
Frame rate                     : 43.066 FPS (1024 SPF)
Compression mode               : Lossy
Stream size                    : 31.1 MiB (11%)
Language                       : Hindi
[img]https://3.bp.blogspot.com/-pyqQ2BEvWNs/WlmBfjKfTPI/AAAAAAAARUo/FqAAlFD-ilA1geza1SX1igAeNWW1aWcZACLcBGAs/s1600/Power%2BRangers%2BSamurai%2BClash%2BOf%2BThe%2BRed%2BRangers%2B2013%2BHD%2BDual%2BAudio%2BEnglish%2BHindi%2BGOPISAHI.mkv_thumbs.jpg[/img]
[img]https://4.bp.blogspot.com/-dLltzn1anQg/WlmBd9arFaI/AAAAAAAARUk/i4kgYxicrZw7xMGqvDvh9JhGm6-OTRoMACLcBGAs/s1600/Power%2BRangers%2BSamurai%2BClash%2BOf%2BThe%2BRed%2BRangers%2B2013%2BHD%2BDual%2BAudio%2BEnglish%2BHindi%2BGOPISAHI.mkv_snapshot_29.43.jpg[/img][/center]

Files list

- Power Rangers Samurai Clash Of The Red Rangers 2013 HD Dual Audio English Hindi GOPISAHI.mkv File size : 290.76 MB

Disqus