Chat
Users Online
+ 9 Guests online in the last 24 hours.

Welcome to our newest member, RaymondKix
Ads
Torrent name: Brutti e cattivi (2017).H264.italian.Ac3-5.1.sub.ita.MIRCrew
File size: 1.03 GB
Seeds: 12
Leechs: 44
Categories: Movies SD
Torrent hash: 377cd89bd487cc447b68f5404734c93c50451a3e
Social Share:
Uploader: robbyrs
Verified torrent:
    - udp://tracker.coppersurfer.tk:6969/announce
    - udp://tracker.opentrackr.org:1337/announce
    - udp://tracker.pirateparty.gr:6969/announce
    - udp://tracker.zer0day.to:1337/announce
    - udp://p4p.arenabg.com:1337/announce
    - udp://p4p.arenabg.ch:1337/announce
    - udp://eddie4.nl:6969/announce
    - udp://tracker.leechers-paradise.org:6969/announce
    - udp://9.rarbg.me:2740/announce
    - udp://9.rarbg.to:2740/announce
    - udp://9.rarbg.com:2710/announce
    - http://bigfoot1942.sektori.org:6969/announce
    - udp://tracker.internetwarriors.net:1337/announce
    - udp://oscar.reyesleon.xyz:6969/announce
    - udp://tracker.cyberia.is:6969/announce
Download Brutti e cattivi (2017).H264.italian.Ac3-5.1.sub.ita.MIRCrew
Download .torrent   Magnet Link
Torrent detail

Brutti e cattivi (2017).H264.italian.Ac3-5.1.sub.ita.MIRCrew

Brutti e cattivi (2017).H264.italian.Ac3-5.1.sub.ita.MIRCrew

[color=red][img]https://worldimages.gallery/images/2017/12/05/Vg6zm.png[/img]
NO FOUND ONLY ORIGINAL RELEASE

[img]https://worldimages.gallery/images/2017/09/02/4716a3153385da57f9bf0ad75d1cdd7a.gif[/img]



My release is always in double track audio italian and Original audio
for select it use VLC or dvd player home
not use wmp

Brutti e cattivi (2017)

[img]https://worldimages.gallery/images/2018/02/09/lIlpk.png[/img]

[URL=https://www.imdb.com/title/tt5450524/][IMG]https://www.userlogos.org/files/logos/Sucka/imdb_new.png[/IMG][/URL]

[img]https://worldimages.gallery/images/2018/01/28/kVBug.png[/img]

Titolo originale:      Brutti e cattivi
    
Nazione:      Italia
Anno:      2017
Genere:      Commedia
Durata:      87'
Regia:      Cosimo Gomez

[img]https://worldimages.gallery/images/2018/01/28/kVlLX.png[/img]

Claudio Santamaria, Marco D'Amore, Sara Serraiocco, Simoncino Martucci, Narcisse Mame, Aline Belibi, Giorgio Colangeli, Filippo Dini, Fabiano Lioi, Rosa Canova, Maria Chiara Augenti, Adamo Dionisi, Rinat Khismatouline, Shi Yang, Guo Qiang Xu

[img]https://worldimages.gallery/images/2018/01/28/kVnEn.png[/img]

Il Papero, Ballerina, Il Merda e Plissé si improvvisano rapinatori per il colpo che cambierà la loro vita. Non importa se il primo è senza gambe, Ballerina, la sua bellissima moglie, non ha le braccia, se Merda è un rasta tossico e Plissé un nano rapper...........

[img]https://worldimages.gallery/images/2018/01/28/kVI50.png[/img]

A group of wild, physically disabled gangsters has a plan to rob a bank, but things go terribly wrong when each of them reveals they all had their own personal agenda. ..........

[img]https://worldimages.gallery/images/2018/01/28/kVQto.png[/img]

[img]https://worldimages.gallery/images/2018/02/09/lILUD.png[/img]
[img]https://worldimages.gallery/images/2018/02/09/lIT0Y.png[/img]
[img]https://worldimages.gallery/images/2018/02/09/lI6BQ.png[/img]
[img]https://worldimages.gallery/images/2018/02/09/lIBJK.png[/img]

[img]https://worldimages.gallery/images/2018/02/09/lIlpk.png[/img]


[spoiler]
General
Unique ID                                : 58399723097818347298428720809950870556 (0x2BEF60A6D77494578F6C98CCD8387C1C)
Complete name                            : Brutti e cattivi (2017).h264.ita.sub.ita-MIRCrewBrutti e cattivi (2017).h264.ita.sub.ita-MIRCrew.mkv
Format                                   : Matroska
Format version                           : Version 2
File size                                : 1.03 GiB
Duration                                 : 1h 29mn
Overall bit rate                         : 1 648 Kbps
Encoded date                             : UTC 2018-02-09T08:33:58Z
Writing application                      : HandBrake 0.10.5 2016021100
Writing library                          : Lavf55.12.0

Video
ID                                       : 1
Format                                   : AVC
Format/Info                              : Advanced Video Codec
Format profile                           : [email protected]
Format settings, CABAC                   : Yes
Format settings, ReFrames                : 4 frames
Codec ID                                 : V_MPEG4/ISO/AVC
Duration                                 : 1h 29mn
Bit rate                                 : 1 231 Kbps
Nominal bit rate                         : 1 300 Kbps
Width                                    : 720 pixels
Height                                   : 304 pixels
Display aspect ratio                     : 2.35:1
Frame rate mode                          : Variable
Frame rate                               : 24.000 fps
Color space                              : YUV
Chroma subsampling                       : 4:2:0
Bit depth                                : 8 bits
Scan type                                : Progressive
Bits/(Pixel*Frame)                       : 0.234
Stream size                              : 791 MiB (75%)
Writing library                          : x264 core 142 r2479 dd79a61
Encoding settings                        : cabac=1 / ref=3 / deblock=1:0:0 / analyse=0x3:0x113 / me=hex / subme=7 / psy=1 / psy_rd=1.00:0.00 / mixed_ref=1 / me_range=16 / chroma_me=1 / trellis=1 / 8x8dct=1 / cqm=0 / deadzone=21,11 / fast_pskip=1 / chroma_qp_offset=-2 / threads=3 / lookahead_threads=1 / sliced_threads=0 / nr=0 / decimate=1 / interlaced=0 / bluray_compat=0 / constrained_intra=0 / bframes=3 / b_pyramid=2 / b_adapt=1 / b_bias=0 / direct=1 / weightb=1 / open_gop=0 / weightp=2 / keyint=240 / keyint_min=24 / scenecut=40 / intra_refresh=0 / rc_lookahead=40 / rc=abr / mbtree=1 / bitrate=1300 / ratetol=1.0 / qcomp=0.60 / qpmin=0 / qpmax=69 / qpstep=4 / vbv_maxrate=62500 / vbv_bufsize=78125 / nal_hrd=none / filler=0 / ip_ratio=1.40 / aq=1:1.00
Default                                  : Yes
Forced                                   : No
Color primaries                          : BT.709-5, BT.1361, IEC 61966-2-4, SMPTE RP177
Transfer characteristics                 : BT.709-5, BT.1361
Matrix coefficients                      : BT.709-5, BT.1361, IEC 61966-2-4 709, SMPTE RP177

Audio
ID                                       : 2
Format                                   : AC-3
Format/Info                              : Audio Coding 3
Mode extension                           : CM (complete main)
Codec ID                                 : A_AC3
Duration                                 : 1h 29mn
Bit rate mode                            : Constant
Bit rate                                 : 384 Kbps
Channel(s)                               : 6 channels
Channel positions                        : Front: L C R, Side: L R, LFE
Sampling rate                            : 48.0 KHz
Bit depth                                : 16 bits
Compression mode                         : Lossy
Delay relative to video                  : 1mn 5s
Stream size                              : 247 MiB (23%)
Title                                    : Surround
Language                                 : Italian
Default                                  : Yes
Forced                                   : No

Menu
00:00:00.000                             : :00:00:00.000
00:08:43.250                             : :00:08:43.167
00:15:22.458                             : :00:15:22.375
00:22:34.166                             : :00:22:34.083
00:27:14.625                             : :00:27:14.542
00:33:36.250                             : :00:33:36.167
00:42:23.750                             : :00:42:23.667
00:54:03.791                             : :00:54:03.667
01:06:12.666                             : :01:06:12.583
01:11:40.333                             : :01:11:40.250
01:16:50.083                             : :01:16:50.000
01:22:18.208                             : :01:22:18.125



[/spoiler]

[/color]

 

Files list

- Brutti e cattivi (2017).h264.ita.sub.ita-MIRCrew.ita.srt File size : 58.59 KB
- Brutti e cattivi (2017).h264.ita.sub.ita-MIRCrew.mkv File size : 1.03 GB

Disqus