Chat
Users Online
+ 10 Guests online in the last 24 hours.

Welcome to our newest member, CharlesLiz
Ads
Torrent name: Ash vs Evil Dead 3x01 (2018).Mp4.Italian.english.sub.ita.eng.MIRCrew
File size: 244.07 MB
Seeds: 11
Leechs: 0
Categories: TV SD
Torrent hash: ec7431bd135e7a203ea85faf51dd2c35975ad91a
Social Share:
Uploader: robbyrs
Verified torrent:
    - udp://tracker.coppersurfer.tk:6969/announce
    - udp://tracker.opentrackr.org:1337/announce
    - udp://tracker.pirateparty.gr:6969/announce
    - udp://tracker.zer0day.to:1337/announce
    - udp://p4p.arenabg.com:1337/announce
    - udp://p4p.arenabg.ch:1337/announce
    - udp://eddie4.nl:6969/announce
    - udp://tracker.leechers-paradise.org:6969/announce
    - udp://9.rarbg.me:2740/announce
    - udp://9.rarbg.to:2740/announce
    - udp://9.rarbg.com:2710/announce
    - udp://tracker.internetwarriors.net:1337/announce
    - udp://tracker.cyberia.is:6969/announce
Download Ash vs Evil Dead 3x01 (2018).Mp4.Italian.english.sub.ita.eng.MIRCrew
Download .torrent   Magnet Link
Torrent detail

Ash vs Evil Dead 3x01 (2018).Mp4.Italian.english.sub.ita.eng.MIRCrew

Ash vs Evil Dead 3x01 (2018).Mp4.Italian.english.sub.ita.eng.MIRCrew

[color=red][img]https://image.ibb.co/kXFjtH/MIRCrew_Rossa_png.png[/img]
NO FOUND ONLY ORIGINAL RELEASE

[img]https://worldimages.gallery/images/2017/09/02/4716a3153385da57f9bf0ad75d1cdd7a.gif[/img]

My release is always in double track audio italian and Original audio
for select it use VLC or dvd player home
not use wmp

Ash vs Evil Dead 3x01


[img]https://worldimages.gallery/images/2018/02/26/lNyRP.png[/img]

[URL=https://www.imdb.com/title/tt7608534/][IMG]https://www.userlogos.org/files/logos/Sucka/imdb_new.png[/IMG][/URL]

[img]https://worldimages.gallery/images/2018/01/28/kVBug.png[/img]

Genre     Horror, Supernatural
Based on     Characters: by Sam Raimi
Developed by     

    Sam Raimi
    Ivan Raimi
    Tom Spezialy

[img]https://worldimages.gallery/images/2018/01/28/kVlLX.png[/img]

    Bruce Campbell
    Ray Santiago
    Dana DeLorenzo
    Jill Marie Jones
    Lucy Lawless
    Michelle Hurd
    Ted Raimi
    Pepi Sonuga
    Arielle Carver-O'Neill
    Lindsay Farris

[img]https://worldimages.gallery/images/2018/01/28/kVnEn.png[/img]

Sono passati ormai 30 anni da quando Ash Williams ha dovuto combattere contro le forze del male. Oggi fa ancora il commesso nello stesso centro commerciale di un tempo, vive in una roulotte, e trascorre le serate in cerca di facili avventure.

[img]https://worldimages.gallery/images/2018/01/28/kVI50.png[/img]

Ash vs Evil Dead is an American comedy horror television series developed by Sam Raimi, Ivan Raimi, and Tom Spezialy for the Starz network filmed in New Zealand. It is set in Raimi's Evil Dead universe, with Bruce Campbell reprising his role as Ash Williams, and acts as a sequel to the original trilogy.............

[img]https://worldimages.gallery/images/2018/01/28/kVQto.png[/img]

[img]https://worldimages.gallery/images/2018/02/26/lNHWK.png[/img]
[img]https://worldimages.gallery/images/2018/02/26/lNJO7.png[/img]
[img]https://worldimages.gallery/images/2018/02/26/lNPFk.png[/img]
[img]https://worldimages.gallery/images/2018/02/26/lNoM8.png[/img]

[img]https://worldimages.gallery/images/2018/01/28/kVeA6.png[/img]

[spoiler]

General
Complete name                            : Ash vs Evil Dead 3x01.Mp4.ita.eng.sub.ita.eng-MIRCrewAsh vs Evil Dead 3x01 (2018).Mp4.Ita.eng.sub.ita.eng.MIRCrew.mp4
Format                                   : MPEG-4
Format profile                           : Base Media
Codec ID                                 : isom
File size                                : 244 MiB
Duration                                 : 27mn 32s
Overall bit rate                         : 1 239 Kbps
Movie name                               : MIRCrew
Encoded date                             : UTC 2018-02-26 16:23:14
Tagged date                              : UTC 2018-02-26 16:23:14
Writing application                      : Lavf54.63.100
Copyright                                : robbyrs-iCN

Video
ID                                       : 1
Format                                   : MPEG-4 Visual
Format profile                           : Advanced [email protected]
Format settings, BVOP                    : Yes
Format settings, QPel                    : No
Format settings, GMC                     : No warppoints
Format settings, Matrix                  : Default (H.263)
Codec ID                                 : 20
Duration                                 : 27mn 32s
Bit rate mode                            : Variable
Bit rate                                 : 975 Kbps
Maximum bit rate                         : 1 000 Kbps
Width                                    : 720 pixels
Height                                   : 404 pixels
Display aspect ratio                     : 16:9
Frame rate mode                          : Constant
Frame rate                               : 23.976 fps
Color space                              : YUV
Chroma subsampling                       : 4:2:0
Bit depth                                : 8 bits
Scan type                                : Progressive
Compression mode                         : Lossy
Bits/(Pixel*Frame)                       : 0.140
Stream size                              : 192 MiB (79%)
Writing library                          : Lavc54.92.100
Language                                 : Italian
Encoded date                             : UTC 2018-02-26 16:23:14
Tagged date                              : UTC 2018-02-26 16:23:14

Audio #1
ID                                       : 2
Format                                   : AAC
Format/Info                              : Advanced Audio Codec
Format profile                           : LC
Codec ID                                 : 40
Duration                                 : 27mn 32s
Duration_LastFrame                       : -9ms
Bit rate mode                            : Constant
Bit rate                                 : 128 Kbps
Channel(s)                               : 2 channels
Channel positions                        : Front: L R
Sampling rate                            : 44.1 KHz
Compression mode                         : Lossy
Delay relative to video                  : -1s 1ms
Stream size                              : 25.2 MiB (10%)
Language                                 : Italian
Encoded date                             : UTC 2018-02-26 16:23:14
Tagged date                              : UTC 2018-02-26 16:23:14

Audio #2
ID                                       : 3
Format                                   : AAC
Format/Info                              : Advanced Audio Codec
Format profile                           : LC
Codec ID                                 : 40
Duration                                 : 27mn 32s
Duration_LastFrame                       : -9ms
Bit rate mode                            : Constant
Bit rate                                 : 128 Kbps
Channel(s)                               : 2 channels
Channel positions                        : Front: L R
Sampling rate                            : 44.1 KHz
Compression mode                         : Lossy
Delay relative to video                  : -1s 1ms
Stream size                              : 25.2 MiB (10%)
Language                                 : English
Encoded date                             : UTC 2018-02-26 16:23:14
Tagged date                              : UTC 2018-02-26 16:23:14



[/spoiler]

[/color]

Files list

- Ash vs Evil Dead 3x01 (2018).Mp4.Ita.eng.sub.ita.eng.MIRCrew.eng.srt File size : 24.61 KB
- Ash vs Evil Dead 3x01 (2018).Mp4.Ita.eng.sub.ita.eng.MIRCrew.ita.srt File size : 24.9 KB
- Ash vs Evil Dead 3x01 (2018).Mp4.Ita.eng.sub.ita.eng.MIRCrew.mp4 File size : 244.02 MB
- Ash vs Evil Dead 3x01 (2018).Mp4.Ita.eng.sub.ita.eng.MIRCrew.srt File size : 344 B
- Ash vs Evil Dead 3x01.Mp4.ita.eng.sub.ita.eng-MIRCrew_track4_ita.srt File size : 384 B

Disqus