Chat
Users Online
+ 10 Guests online in the last 24 hours.

Welcome to our newest member, wbwwcsjwkf
Ads
Torrent name: Ash Vs Evil Dead 3x04 Questioni irrisolte.Mp4.Italian.english.sub.ita.eng.MIRCrew
File size: 251.49 MB
Seeds: 8
Leechs: 8
Categories: TV SD
Torrent hash: eb3faf4b38d27a1b856ae5f0b03d98225afbbb56
Social Share:
Uploader: robbyrs
Verified torrent:
    - udp://tracker.coppersurfer.tk:6969/announce
    - udp://tracker.opentrackr.org:1337/announce
    - udp://tracker.pirateparty.gr:6969/announce
    - udp://tracker.zer0day.to:1337/announce
    - udp://p4p.arenabg.com:1337/announce
    - udp://p4p.arenabg.ch:1337/announce
    - udp://eddie4.nl:6969/announce
    - udp://tracker.leechers-paradise.org:6969/announce
    - udp://9.rarbg.me:2740/announce
    - udp://9.rarbg.to:2740/announce
    - udp://9.rarbg.com:2710/announce
    - udp://tracker.internetwarriors.net:1337/announce
    - udp://tracker.cyberia.is:6969/announce
Download Ash Vs Evil Dead 3x04 Questioni irrisolte.Mp4.Italian.english.sub.ita.eng.MIRCrew
Download .torrent   Magnet Link
Torrent detail

Ash Vs Evil Dead 3x04 Questioni irrisolte.Mp4.Italian.english.sub.ita.eng.MIRCrew

Ash Vs Evil Dead 3x04 Questioni irrisolte.Mp4.Italian.english.sub.ita.eng.MIRCrew

[color=red][img]https://image.ibb.co/kXFjtH/MIRCrew_Rossa_png.png[/img]
NO FOUND ONLY ORIGINAL RELEASE

[img]https://worldimages.gallery/images/2017/09/02/4716a3153385da57f9bf0ad75d1cdd7a.gif[/img]

My release is always in double track audio italian and Original audio
for select it use VLC or dvd player home
not use wmp

Ash Vs Evil Dead 3x04 Questioni irrisolte


[img]https://worldimages.gallery/images/2018/02/26/lNyRP.png[/img]

[URL=https://www.imdb.com/title/tt7608534/][IMG]https://www.userlogos.org/files/logos/Sucka/imdb_new.png[/IMG][/URL]

[img]https://worldimages.gallery/images/2018/01/28/kVBug.png[/img]

Genre     Horror, Supernatural
Based on     Characters: by Sam Raimi
Developed by     

    Sam Raimi
    Ivan Raimi
    Tom Spezialy

[img]https://worldimages.gallery/images/2018/01/28/kVlLX.png[/img]

    Bruce Campbell
    Ray Santiago
    Dana DeLorenzo
    Jill Marie Jones
    Lucy Lawless
    Michelle Hurd
    Ted Raimi
    Pepi Sonuga
    Arielle Carver-O'Neill
    Lindsay Farris

[img]https://worldimages.gallery/images/2018/01/28/kVnEn.png[/img]

Sono passati ormai 30 anni da quando Ash Williams ha dovuto combattere contro le forze del male. Oggi fa ancora il commesso nello stesso centro commerciale di un tempo, vive in una roulotte, e trascorre le serate in cerca di facili avventure.

[img]https://worldimages.gallery/images/2018/01/28/kVI50.png[/img]

Ash vs Evil Dead is an American comedy horror television series developed by Sam Raimi, Ivan Raimi, and Tom Spezialy for the Starz network filmed in New Zealand. It is set in Raimi's Evil Dead universe, with Bruce Campbell reprising his role as Ash Williams, and acts as a sequel to the original trilogy.............

[img]https://worldimages.gallery/images/2018/01/28/kVQto.png[/img]

[img]https://worldimages.gallery/images/2018/02/26/lNHWK.png[/img]
[img]https://worldimages.gallery/images/2018/02/26/lNJO7.png[/img]
[img]https://worldimages.gallery/images/2018/02/26/lNPFk.png[/img]
[img]https://worldimages.gallery/images/2018/02/26/lNoM8.png[/img]

[img]https://worldimages.gallery/images/2018/01/28/kVeA6.png[/img]

[spoiler]

General
General
Complete name                            : C:UsersrobbyDesktopAsh vs Evil Dead 3x02 Cabina tre (2018).Mp4.Italian.english.sub.ita.eng.MIRCrewAsh vs Evil Dead 3x02 Cabina tre (2018).Mp4.Italian.english.sub.ita.eng.MIRCrew.mp4
Format                                   : MPEG-4
Format profile                           : Base Media
Codec ID                                 : isom
File size                                : 282 MiB
Duration                                 : 29mn 17s
Overall bit rate                         : 1 347 Kbps
Movie name                               : MIRCrew
Encoded date                             : UTC 2018-03-08 23:13:18
Tagged date                              : UTC 2018-03-08 23:13:18
Writing application                      : Lavf54.63.100
Copyright                                : robbyrs-iCN

Video
ID                                       : 1
Format                                   : AVC
Format/Info                              : Advanced Video Codec
Format profile                           : [email protected]
Format settings, CABAC                   : Yes
Format settings, ReFrames                : 2 frames
Codec ID                                 : avc1
Codec ID/Info                            : Advanced Video Coding
Duration                                 : 29mn 17s
Bit rate                      General
Complete name                            : Ash Vs Evil Dead 3x04 Questioni irrisolte.mp4.ita.eng.sub.ita.eng-MIRCrewAsh Vs Evil Dead 3x04 Questioni irrisolte.mp4.ita.eng.sub.ita.eng-MIRCrew.mp4
Format                                   : MPEG-4
Format profile                           : Base Media / Version 2
Codec ID                                 : mp42
File size                                : 251 MiB
Duration                                 : 27mn 59s
Overall bit rate mode                    : Variable
Overall bit rate                         : 1 256 Kbps
Encoded date                             : UTC 2018-03-20 14:01:24
Tagged date                              : UTC 2018-03-20 14:01:24
Writing application                      : HandBrake 0.10.5 2016021100

Video
ID                                       : 1
Format                                   : MPEG-4 Visual
Format profile                           : [email protected]
Format settings, BVOP                    : No
Format settings, QPel                    : No
Format settings, GMC                     : No warppoints
Format settings, Matrix                  : Default (H.263)
Codec ID                                 : 20
Duration                                 : 27mn 59s
Bit rate                                 : 991 Kbps
Width                                    : 656 pixels
Height                                   : 368 pixels
Display aspect ratio                     : 16:9
Frame rate mode                          : Variable
Frame rate                               : 23.976 fps
Minimum frame rate                       : 23.974 fps
Maximum frame rate                       : 23.981 fps
Color space                              : YUV
Chroma subsampling                       : 4:2:0
Bit depth                                : 8 bits
Scan type                                : Progressive
Compression mode                         : Lossy
Bits/(Pixel*Frame)                       : 0.171
Stream size                              : 198 MiB (79%)
Writing library                          : Lavc55.34.1
Encoded date                             : UTC 2018-03-20 14:01:24
Tagged date                              : UTC 2018-03-20 14:01:24

Audio #1
ID                                       : 2
Format                                   : AAC
Format/Info                              : Advanced Audio Codec
Format profile                           : LC
Codec ID                                 : 40
Duration                                 : 27mn 59s
Bit rate mode                            : Variable
Bit rate                                 : 128 Kbps
Channel(s)                               : 2 channels
Channel positions                        : Front: L R
Sampling rate                            : 48.0 KHz
Compression mode                         : Lossy
Stream size                              : 25.7 MiB (10%)
Title                                    : Stereo
Encoded date                             : UTC 2018-03-20 14:01:24
Tagged date                              : UTC 2018-03-20 14:01:24

Audio #2
ID                                       : 3
Format                                   : AAC
Format/Info                              : Advanced Audio Codec
Format profile                           : LC
Codec ID                                 : 40
Duration                                 : 27mn 59s
Bit rate mode                            : Variable
Bit rate                                 : 128 Kbps
Channel(s)                               : 2 channels
Channel positions                        : Front: L R
Sampling rate                            : 48.0 KHz
Compression mode                         : Lossy
Stream size                              : 25.6 MiB (10%)
Title                                    : Stereo
Encoded date                             : UTC 2018-03-20 14:01:24
Tagged date                              : UTC 2018-03-20 14:01:24



[/spoiler]

[/color]

Files list

- Ash Vs Evil Dead 3x04 Questioni irrisolte.mp4.ita.eng.sub.ita.eng-MIRCrew.eng.srt File size : 32.75 KB
- Ash Vs Evil Dead 3x04 Questioni irrisolte.mp4.ita.eng.sub.ita.eng-MIRCrew.ita.srt File size : 30.26 KB
- Ash Vs Evil Dead 3x04 Questioni irrisolte.mp4.ita.eng.sub.ita.eng-MIRCrew.mp4 File size : 251.43 MB
- MIRCrew-ilCorSaRoNeRo.txt File size : 53 B

Disqus