Chat
Users Online
+ 14 Guests online in the last 24 hours.

Welcome to our newest member, Cobrynraf
Ads
Torrent name: Ash Vs Evil Dead 3x05.Mp4.Italian.english.sub.ita.eng.MIRCrew
File size: 241.52 MB
Seeds: 13
Leechs: 24
Categories: TV SD
Torrent hash: 4fb9068b88944676d6cb1b57f31a3a98469f5337
Social Share:
Uploader: robbyrs
Verified torrent:
    - udp://tracker.coppersurfer.tk:6969/announce
    - udp://tracker.opentrackr.org:1337/announce
    - udp://tracker.pirateparty.gr:6969/announce
    - udp://tracker.zer0day.to:1337/announce
    - udp://p4p.arenabg.com:1337/announce
    - udp://p4p.arenabg.ch:1337/announce
    - udp://eddie4.nl:6969/announce
    - udp://tracker.leechers-paradise.org:6969/announce
    - udp://9.rarbg.me:2740/announce
    - udp://9.rarbg.to:2740/announce
    - udp://9.rarbg.com:2710/announce
    - udp://tracker.internetwarriors.net:1337/announce
    - udp://tracker.cyberia.is:6969/announce
Download Ash Vs Evil Dead 3x05.Mp4.Italian.english.sub.ita.eng.MIRCrew
Download .torrent   Magnet Link
Torrent detail

Ash Vs Evil Dead 3x05.Mp4.Italian.english.sub.ita.eng.MIRCrew

Ash Vs Evil Dead 3x05.Mp4.Italian.english.sub.ita.eng.MIRCrew


[color=red][img]https://image.ibb.co/kXFjtH/MIRCrew_Rossa_png.png[/img]
NO FOUND ONLY ORIGINAL RELEASE

[img]https://worldimages.gallery/images/2017/09/02/4716a3153385da57f9bf0ad75d1cdd7a.gif[/img]

My release is always in double track audio italian and Original audio
for select it use VLC or dvd player home
not use wmp

Ash Vs Evil Dead 3x05


[img]https://worldimages.gallery/images/2018/02/26/lNyRP.png[/img]

[URL=https://www.imdb.com/title/tt7608534/][IMG]https://www.userlogos.org/files/logos/Sucka/imdb_new.png[/IMG][/URL]

[img]https://worldimages.gallery/images/2018/01/28/kVBug.png[/img]

Genre     Horror, Supernatural
Based on     Characters: by Sam Raimi
Developed by     

    Sam Raimi
    Ivan Raimi
    Tom Spezialy

[img]https://worldimages.gallery/images/2018/01/28/kVlLX.png[/img]

    Bruce Campbell
    Ray Santiago
    Dana DeLorenzo
    Jill Marie Jones
    Lucy Lawless
    Michelle Hurd
    Ted Raimi
    Pepi Sonuga
    Arielle Carver-O'Neill
    Lindsay Farris

[img]https://worldimages.gallery/images/2018/01/28/kVnEn.png[/img]

Sono passati ormai 30 anni da quando Ash Williams ha dovuto combattere contro le forze del male. Oggi fa ancora il commesso nello stesso centro commerciale di un tempo, vive in una roulotte, e trascorre le serate in cerca di facili avventure.

[img]https://worldimages.gallery/images/2018/01/28/kVI50.png[/img]

Ash vs Evil Dead is an American comedy horror television series developed by Sam Raimi, Ivan Raimi, and Tom Spezialy for the Starz network filmed in New Zealand. It is set in Raimi's Evil Dead universe, with Bruce Campbell reprising his role as Ash Williams, and acts as a sequel to the original trilogy.............

[img]https://worldimages.gallery/images/2018/01/28/kVQto.png[/img]

[img]https://worldimages.gallery/images/2018/02/26/lNHWK.png[/img]
[img]https://worldimages.gallery/images/2018/02/26/lNJO7.png[/img]
[img]https://worldimages.gallery/images/2018/02/26/lNPFk.png[/img]
[img]https://worldimages.gallery/images/2018/02/26/lNoM8.png[/img]

[img]https://worldimages.gallery/images/2018/01/28/kVeA6.png[/img]

[spoiler]

General
Complete name                            : Ash Vs Evil Dead 3x05.Mp4.Italian.english.sub.ita.eng.MIRCrewAsh Vs Evil Dead 3x05.Mp4.Italian.english.sub.ita.eng.MIRCrew.m4v
Format                                   : MPEG-4
Format profile                           : Base Media / Version 2
Codec ID                                 : mp42
File size                                : 241 MiB
Duration                                 : 27mn 10s
Overall bit rate mode                    : Variable
Overall bit rate                         : 1 242 Kbps
Encoded date                             : UTC 2018-03-27 20:23:45
Tagged date                              : UTC 2018-03-27 20:23:45
Writing application                      : HandBrake 0.10.5 2016021100

Video
ID                                       : 1
Format                                   : AVC
Format/Info                              : Advanced Video Codec
Format profile                           : [email protected]
Format settings, CABAC                   : Yes
Format settings, ReFrames                : 4 frames
Codec ID                                 : avc1
Codec ID/Info                            : Advanced Video Coding
Duration                                 : 27mn 10s
Bit rate                                 : 1 000 Kbps
Width                                    : 656 pixels
Height                                   : 368 pixels
Display aspect ratio                     : 16:9
Frame rate mode                          : Variable
Frame rate                               : 23.976 fps
Minimum frame rate                       : 23.974 fps
Maximum frame rate                       : 23.981 fps
Color space                              : YUV
Chroma subsampling                       : 4:2:0
Bit depth                                : 8 bits
Scan type                                : Progressive
Bits/(Pixel*Frame)                       : 0.173
Stream size                              : 190 MiB (79%)
Writing library                          : x264 core 142 r2479 dd79a61
Encoding settings                        : cabac=1 / ref=3 / deblock=1:0:0 / analyse=0x3:0x113 / me=hex / subme=7 / psy=1 / psy_rd=1.00:0.00 / mixed_ref=1 / me_range=16 / chroma_me=1 / trellis=1 / 8x8dct=1 / cqm=0 / deadzone=21,11 / fast_pskip=1 / chroma_qp_offset=-2 / threads=3 / lookahead_threads=1 / sliced_threads=0 / nr=0 / decimate=1 / interlaced=0 / bluray_compat=0 / constrained_intra=0 / bframes=3 / b_pyramid=2 / b_adapt=1 / b_bias=0 / direct=1 / weightb=1 / open_gop=0 / weightp=2 / keyint=240 / keyint_min=24 / scenecut=40 / intra_refresh=0 / rc_lookahead=40 / rc=abr / mbtree=1 / bitrate=1000 / ratetol=1.0 / qcomp=0.60 / qpmin=0 / qpmax=69 / qpstep=4 / vbv_maxrate=62500 / vbv_bufsize=78125 / nal_hrd=none / filler=0 / ip_ratio=1.40 / aq=1:1.00
Encoded date                             : UTC 2018-03-27 20:23:45
Tagged date                              : UTC 2018-03-27 20:23:45
Color primaries                          : BT.601-6 525, BT.1358 525, BT.1700 NTSC, SMPTE 170M
Transfer characteristics                 : BT.709-5, BT.1361
Matrix coefficients                      : BT.601-6 525, BT.1358 525, BT.1700 NTSC, SMPTE 170M

Audio #1
ID                                       : 2
Format                                   : AAC
Format/Info                              : Advanced Audio Codec
Format profile                           : LC
Codec ID                                 : 40
Duration                                 : 27mn 10s
Bit rate mode                            : Variable
Bit rate                                 : 128 Kbps
Channel(s)                               : 2 channels
Channel positions                        : Front: L R
Sampling rate                            : 48.0 KHz
Compression mode                         : Lossy
Delay relative to video                  : -7s 507ms
Stream size                              : 24.9 MiB (10%)
Title                                    : Stereo
Encoded date                             : UTC 2018-03-27 20:23:45
Tagged date                              : UTC 2018-03-27 20:23:45

Audio #2
ID                                       : 3
Format                                   : AAC
Format/Info                              : Advanced Audio Codec
Format profile                           : LC
Codec ID                                 : 40
Duration                                 : 27mn 10s
Bit rate mode                            : Variable
Bit rate                                 : 128 Kbps
Channel(s)                               : 2 channels
Channel positions                        : Front: L R
Sampling rate                            : 48.0 KHz
Compression mode                         : Lossy
Delay relative to video                  : -7s 507ms
Stream size                              : 24.9 MiB (10%)
Title                                    : Stereo
Encoded date                             : UTC 2018-03-27 20:23:45
Tagged date                              : UTC 2018-03-27 20:23:45




[/spoiler]

[/color]

Files list

- Ash Vs Evil Dead 3x05.Mp4.Italian.english.sub.ita.eng.MIRCrew.eng.srt File size : 25.26 KB
- Ash Vs Evil Dead 3x05.Mp4.Italian.english.sub.ita.eng.MIRCrew.ita.srt File size : 24.17 KB
- Ash Vs Evil Dead 3x05.Mp4.Italian.english.sub.ita.eng.MIRCrew.m4v File size : 241.47 MB
- MIRCrew-ilCorSaRoNeRo.txt File size : 53 B

Disqus