Chat
Users Online
+ 11 Guests online in the last 24 hours.

Welcome to our newest member, KalanLek
Ads
Torrent name: The Suspicious Death of a Minor - Too Young to Die - Morte sospetta di una minorenne (1975).H264.ita
File size: 1.18 GB
Seeds: 26
Leechs: 12
Categories: Movies SD
Torrent hash: 7876a18a39480a8f4ce605d392a4c499ae365c4f
Social Share:
Uploader: robbyrs
Verified torrent:
    - udp://tracker.coppersurfer.tk:6969/announce
    - udp://tracker.torrent.eu.org:451/announce
    - udp://tracker.pirateparty.gr:6969/announce
    - udp://tracker.opentrackr.org:1337/announce
    - udp://tracker.leechers-paradise.org:6969/announce
    - udp://tracker.eddie4.nl:6969/announce
    - udp://shadowshq.yi.org:6969/announce
    - udp://shadowshq.eddie4.nl:6969/announce
    - udp://inferno.demonoid.pw:3391/announce
    - udp://eddie4.nl:6969/announce
    - udp://9.rarbg.to:2730/announce
    - udp://9.rarbg.com:2710/announce
    - udp://9.rarbg.me:2780/announce
    - udp://62.138.0.158:6969/announce
    - udp://151.80.120.114:2710/announce
Download The Suspicious Death of a Minor - Too Young to Die - Morte sospetta di una minorenne (1975).H264.ita
Download .torrent   Magnet Link
Torrent detail

The Suspicious Death of a Minor - Too Young to Die - Morte sospetta di una minorenne (1975).H264.ita

The Suspicious Death of a Minor - Too Young to Die - Morte sospetta di una minorenne (1975).H264.italian.english.Ac3.sub.eng.MIRCrew

[color=red][img]https://worldimages.gallery/images/2017/12/05/Vg6zm.png[/img]
NO FOUND ONLY ORIGINAL RELEASE

[img]https://worldimages.gallery/images/2017/09/02/4716a3153385da57f9bf0ad75d1cdd7a.gif[/img]


My release is always in double track audio italian and Original audio
for select it use VLC or dvd player home
not use wmp

Morte sospetta di una minorenne - The Suspicious Death of a Minor - Too Young to Die (1975)

[img]https://image.ibb.co/bE3VHd/w.png[/img]

[URL=https://www.imdb.com/title/tt0073406/][IMG]https://www.userlogos.org/files/logos/Sucka/imdb_new.png[/IMG][/URL]

[img]https://worldimages.gallery/images/2018/01/28/kVBug.png[/img]

Titolo originale    Morte sospetta di una minorenne
Lingua originale    italiano
Paese di produzione    Italia
Anno    1975
Durata    100 min
Genere    giallo, poliziesco
Regia    Sergio Martino
Soggetto    Ernesto Gastaldi
Sceneggiatura    Ernesto Gastaldi, Sergio Martino

[img]https://worldimages.gallery/images/2018/01/28/kVlLX.png[/img]

Claudio Cassinelli: Paolo Germi
Mel Ferrer: questore
Lia Tanzi: Carmela
Gianfranco Barra: Teti
Patrizia Castaldi: Marisa
Adolfo Caruso: Giannino
Jenny Tamburi: Gloria
Massimo Girotti: Gaudenzio Pesce
Carlo Alighiero: capo ufficio S.M.C.D.
Franco Alpestre: il Menga, Raimodo Menghini
Fiammetta Baralla: albergatrice
Barbara Magnolfi: Floriana
Aldo Massasso: procuratore Listri
Roberto Posse: killer
ecc.......

[img]https://worldimages.gallery/images/2018/01/28/kVnEn.png[/img]

Milano. Una ragazza di nome Marisa viene assassinata. Sul caso indaga il commissario Germi, che aveva conosciuto per caso la ragazza poco prima della morte. Nonostante i suoi metodi violenti e fuori norma........................

[img]https://worldimages.gallery/images/2018/01/28/kVI50.png[/img]

A young prostitute is found brutally killed and is up to detective Germi (Claudio Cassinelli) the investigation of the case, as the search progress he uncovers a girls trafficking ring with connections to powerful people. .

[img]https://worldimages.gallery/images/2018/01/28/kVQto.png[/img]

[img]https://image.ibb.co/kP883J/vlcsnap_00001.png[/img]
[img]https://image.ibb.co/mbdxxd/vlcsnap_00002.png[/img]
[img]https://image.ibb.co/mYt83J/vlcsnap_00003.png[/img]
[img]https://image.ibb.co/hU3VHd/vlcsnap_00004.png[/img]


[img]https://worldimages.gallery/images/2018/01/28/kVeA6.png[/img]

[spoiler]
General
Unique ID                                : 205521467864348656670636858290613358064 (0x9A9DFEB2E8BD5076F8F0128AE5FD8DF0)
Complete name                            : Morte sospetta di una minorenne - Too Young to Die (1975).h264 - MIRCrewMorte sospetta di una minorenne - Too Young to Die (1975).h264 - MIRCrew.mkv
Format                                   : Matroska
Format version                           : Version 2
File size                                : 1.18 GiB
Duration                                 : 1h 40mn
Overall bit rate                         : 1 679 Kbps
Encoded date                             : UTC 2018-05-23T15:17:33Z
Writing application                      : HandBrake 0.10.5 2016021100
Writing library                          : Lavf55.12.0

Video
ID                                       : 1
Format                                   : AVC
Format/Info                              : Advanced Video Codec
Format profile                           : [email protected]
Format settings, CABAC                   : Yes
Format settings, ReFrames                : 4 frames
Codec ID                                 : V_MPEG4/ISO/AVC
Duration                                 : 1h 40mn
Bit rate                                 : 1 300 Kbps
Width                                    : 720 pixels
Height                                   : 304 pixels
Display aspect ratio                     : 2.35:1
Frame rate mode                          : Variable / Variable
Frame rate                               : 23.976 fps
Color space                              : YUV
Chroma subsampling                       : 4:2:0
Bit depth                                : 8 bits
Scan type                                : Progressive
Bits/(Pixel*Frame)                       : 0.248
Stream size                              : 906 MiB (75%)
Writing library                          : x264 core 142 r2479 dd79a61
Encoding settings                        : cabac=1 / ref=3 / deblock=1:0:0 / analyse=0x3:0x113 / me=hex / subme=7 / psy=1 / psy_rd=1.00:0.00 / mixed_ref=1 / me_range=16 / chroma_me=1 / trellis=1 / 8x8dct=1 / cqm=0 / deadzone=21,11 / fast_pskip=1 / chroma_qp_offset=-2 / threads=3 / lookahead_threads=1 / sliced_threads=0 / nr=0 / decimate=1 / interlaced=0 / bluray_compat=0 / constrained_intra=0 / bframes=3 / b_pyramid=2 / b_adapt=1 / b_bias=0 / direct=1 / weightb=1 / open_gop=0 / weightp=2 / keyint=240 / keyint_min=24 / scenecut=40 / intra_refresh=0 / rc_lookahead=40 / rc=abr / mbtree=1 / bitrate=1300 / ratetol=1.0 / qcomp=0.60 / qpmin=0 / qpmax=69 / qpstep=4 / vbv_maxrate=62500 / vbv_bufsize=78125 / nal_hrd=none / filler=0 / ip_ratio=1.40 / aq=1:1.00
Default                                  : Yes
Forced                                   : No
Color primaries                          : BT.709-5, BT.1361, IEC 61966-2-4, SMPTE RP177
Transfer characteristics                 : BT.709-5, BT.1361
Matrix coefficients                      : BT.709-5, BT.1361, IEC 61966-2-4 709, SMPTE RP177

Audio #1
ID                                       : 2
Format                                   : AC-3
Format/Info                              : Audio Coding 3
Mode extension                           : CM (complete main)
Codec ID                                 : A_AC3
Duration                                 : 1h 40mn
Bit rate mode                            : Constant
Bit rate                                 : 192 Kbps
Channel(s)                               : 1 channel
Channel positions                        : Front: C
Sampling rate                            : 48.0 KHz
Bit depth                                : 16 bits
Compression mode                         : Lossy
Delay relative to video                  : 1mn 5s
Stream size                              : 138 MiB (11%)
Title                                    : Mono
Language                                 : Italian
Default                                  : Yes
Forced                                   : No

Audio #2
ID                                       : 3
Format                                   : AC-3
Format/Info                              : Audio Coding 3
Mode extension                           : CM (complete main)
Codec ID                                 : A_AC3
Duration                                 : 1h 40mn
Bit rate mode                            : Constant
Bit rate                                 : 192 Kbps
Channel(s)                               : 1 channel
Channel positions                        : Front: C
Sampling rate                            : 48.0 KHz
Bit depth                                : 16 bits
Compression mode                         : Lossy
Delay relative to video                  : 1mn 5s
Stream size                              : 138 MiB (11%)
Title                                    : Mono
Language                                 : English
Default                                  : No
Forced                                   : No

Menu
00:00:00.000                             : :Chapter 1
00:08:33.397                             : :Chapter 2
00:17:33.896                             : :Chapter 3
00:24:40.614                             : :Chapter 4
00:34:29.285                             : :Chapter 5
00:40:08.290                             : :Chapter 6
00:52:24.526                             : :Chapter 7
00:58:49.285                             : :Chapter 8
01:06:46.387                             : :Chapter 9
01:15:07.346                             : :Chapter 10
01:23:48.241                             : :Chapter 11
01:31:44.342                             : :Chapter 12


[/spoiler]

[/color]


Files list

- MIRCrew-ilCorSaRoNeRo.txt File size : 53 B
- Morte sospetta di una minorenne - Too Young to Die (1975).h264 - MIRCrew.mkv File size : 1.18 GB
- Morte sospetta di una minorenne - Too Young to Die (1975)_track5_eng.srt File size : 78.77 KB
- Morte sospetta di una minorenne - Too Young to Die (1975)_track6_eng.srt File size : 89.13 KB

Disqus