Chat
Users Online
+ 15 Guests online in the last 24 hours.

Welcome to our newest member, Andreasujg
Ads
Torrent name: The School Teacher in House - L'insegnante viene a casa (1978) Edwige Fenech.H264.italian.english.Ac
File size: 1.07 GB
Seeds: 28
Leechs: 14
Categories: Movies SD
Torrent hash: 1d374ede13ee22c1013e7397687c6b89926e43b5
Social Share:
Uploader: robbyrs
Verified torrent:
    - udp://tracker.coppersurfer.tk:6969/announce
    - udp://tracker.torrent.eu.org:451/announce
    - udp://tracker.pirateparty.gr:6969/announce
    - udp://tracker.opentrackr.org:1337/announce
    - udp://tracker.leechers-paradise.org:6969/announce
    - udp://tracker.eddie4.nl:6969/announce
    - udp://shadowshq.yi.org:6969/announce
    - udp://shadowshq.eddie4.nl:6969/announce
    - udp://inferno.demonoid.pw:3391/announce
    - udp://eddie4.nl:6969/announce
    - udp://9.rarbg.to:2730/announce
    - udp://9.rarbg.com:2710/announce
    - udp://9.rarbg.me:2780/announce
    - udp://62.138.0.158:6969/announce
    - udp://151.80.120.114:2710/announce
Download The School Teacher in House - L'insegnante viene a casa (1978) Edwige Fenech.H264.italian.english.Ac
Download .torrent   Magnet Link
Torrent detail

The School Teacher in House - L'insegnante viene a casa (1978) Edwige Fenech.H264.italian.english.Ac

The School Teacher in House - L'insegnante viene a casa (1978) Edwige Fenech.H264.italian.english.Ac3.sub.ita.MIRCrew

[color=red][img]https://worldimages.gallery/images/2017/12/05/Vg6zm.png[/img]
NO FOUND ONLY ORIGINAL RELEASE

[img]https://worldimages.gallery/images/2017/09/02/4716a3153385da57f9bf0ad75d1cdd7a.gif[/img]


My release is always in double track audio italian and Original audio
for select it use VLC or dvd player home
not use wmp

L'insegnante viene a casa  - The School Teacher in House (1978)

[img]https://worldimages.gallery/images/2018/06/07/an3a8.png[/img]

[URL=https://www.imdb.com/title/tt0077738/][IMG]https://www.userlogos.org/files/logos/Sucka/imdb_new.png[/IMG][/URL]

[img]https://worldimages.gallery/images/2018/01/28/kVBug.png[/img]

Paese di produzione    Italia, Francia
Anno    1978
Durata    90 min
Genere    commedia, erotico
Regia    Michele Massimo Tarantini
Soggetto    Francesco Milizia, Michele Massimo Tarantini, Luciano Martino
Sceneggiatura    Marino Onorati,

[img]https://worldimages.gallery/images/2018/01/28/kVlLX.png[/img]

Edwige Fenech: Luisa De Dominicis
Renzo Montagnani: Ferdinando Bonci Marinotti
Alvaro Vitali: Ottavio
Marco Gelardini: Marcello
Carlo Sposito: colonnello Marullo
Dino Emanuelli: colonnello Pesce
Gisella Sofio: Teresa Busatti
Lucio Montanaro: Roberto Marullo
Clara Colosimo: moglie del colonnello Marullo
Jacques Stany: collega di Ferdinando
Gianfranco Barra: dottor Busatti
Lino Banfi: portinaio Amedeo
Ria De Simone: signora Bonci Marinotti
Mirella Baiocco: figlia del colonnello Marullo
ecc.................

[img]https://worldimages.gallery/images/2018/01/28/kVnEn.png[/img]

Luisa De Dominicis, un'attraente e giovane insegnante di pianoforte italiana, prende in affitto un appartamento a Lucca per stare più vicina al suo fidanzato, l'assessore Ferdinando Bonci Marinotti; l'uomo, più anziano di lei, è però già sposato con un'altra. Luisa, all'oscuro di ciò, non vede l'ora di convolare a nozze con Ferdinando, e per questo lo cerca sempre con insistenza

[img]https://worldimages.gallery/images/2018/01/28/kVI50.png[/img]

Luisa De Dominicus is a Milanese piano teacher who moves to Lucca to be with the man she loves: Ferdinando 'Bonci' Marinotti, a city councilman campaigning for mayor on a platform of moral ...

[img]https://worldimages.gallery/images/2018/01/28/kVQto.png[/img]

[img]https://worldimages.gallery/images/2018/06/07/an2BA.png[/img]
[img]https://worldimages.gallery/images/2018/06/07/anKJD.png[/img]
[img]https://worldimages.gallery/images/2018/06/07/anN4Y.png[/img]
[img]https://worldimages.gallery/images/2018/06/07/angpQ.png[/img]
[img]https://worldimages.gallery/images/2018/06/07/anDdK.png[/img]
[img]https://worldimages.gallery/images/2018/06/07/anSc7.png[/img]
[img]https://worldimages.gallery/images/2018/06/07/aniSk.png[/img]

[img]https://worldimages.gallery/images/2018/01/28/kVeA6.png[/img]

[spoiler]
General
Unique ID                                : 287806304669171598295240223102609274130 (0xD8857A607964ABF43ACC635C5ADA3512)
Complete name                            : L'insegnante viene a casa  - The School Teacher in House (1978).H264.ita.eng.sub.ita-MIRCrewL'insegnante viene a casa  - The School Teacher in House (1978).H264.ita.eng.sub.ita-MIRCrew.mkv
Format                                   : Matroska
Format version                           : Version 2
File size                                : 1.07 GiB
Duration                                 : 1h 28mn
Overall bit rate                         : 1 731 Kbps
Movie name                               : MIRCrew
Encoded date                             : UTC 2018-06-03 18:16:31
Writing application                      : Lavf54.63.100
Writing library                          : Lavf54.63.100

Video
ID                                       : 1
Format                                   : AVC
Format/Info                              : Advanced Video Codec
Format profile                           : [email protected]
Format settings, CABAC                   : Yes
Format settings, ReFrames                : 2 frames
Codec ID                                 : V_MPEG4/ISO/AVC
Duration                                 : 1h 28mn
Bit rate                                 : 1 350 Kbps
Width                                    : 688 pixels
Height                                   : 368 pixels
Display aspect ratio                     : 16:9
Frame rate mode                          : Variable
Frame rate                               : 25.000 fps
Color space                              : YUV
Chroma subsampling                       : 4:2:0
Bit depth                                : 8 bits
Scan type                                : Progressive
Bits/(Pixel*Frame)                       : 0.213
Stream size                              : 827 MiB (76%)
Writing library                          : x264 core 130 r2273
Encoding settings                        : cabac=1 / ref=2 / deblock=1:0:0 / analyse=0x1:0x131 / me=hex / subme=7 / psy=1 / psy_rd=1.00:0.00 / mixed_ref=0 / me_range=16 / chroma_me=1 / trellis=1 / 8x8dct=0 / cqm=0 / deadzone=21,11 / fast_pskip=1 / chroma_qp_offset=-2 / threads=3 / lookahead_threads=1 / sliced_threads=0 / nr=0 / decimate=1 / interlaced=0 / bluray_compat=0 / constrained_intra=0 / bframes=3 / b_pyramid=0 / b_adapt=1 / b_bias=0 / direct=3 / weightb=1 / open_gop=0 / weightp=2 / keyint=250 / keyint_min=25 / scenecut=40 / intra_refresh=0 / rc_lookahead=40 / rc=abr / mbtree=1 / bitrate=1350 / ratetol=1.0 / qcomp=0.60 / qpmin=10 / qpmax=69 / qpstep=4 / vbv_maxrate=24000 / vbv_bufsize=24000 / nal_hrd=none / ip_ratio=1.40 / aq=1:1.00
Language                                 : Italian
Default                                  : Yes
Forced                                   : No

Audio #1
ID                                       : 2
Format                                   : AC-3
Format/Info                              : Audio Coding 3
Mode extension                           : CM (complete main)
Codec ID                                 : A_AC3
Duration                                 : 1h 28mn
Bit rate mode                            : Constant
Bit rate                                 : 192 Kbps
Channel(s)                               : 2 channels
Channel positions                        : Front: L R
Sampling rate                            : 48.0 KHz
Bit depth                                : 16 bits
Compression mode                         : Lossy
Delay relative to video                  : 1mn 5s
Stream size                              : 121 MiB (11%)
Title                                    : Stereo
Language                                 : Italian
Default                                  : No
Forced                                   : No

Audio #2
ID                                       : 3
Format                                   : AC-3
Format/Info                              : Audio Coding 3
Mode extension                           : CM (complete main)
Codec ID                                 : A_AC3
Duration                                 : 1h 28mn
Bit rate mode                            : Constant
Bit rate                                 : 192 Kbps
Channel(s)                               : 2 channels
Channel positions                        : Front: L R
Sampling rate                            : 48.0 KHz
Bit depth                                : 16 bits
Compression mode                         : Lossy
Delay relative to video                  : 1mn 5s
Stream size                              : 121 MiB (11%)
Title                                    : Stereo
Language                                 : English
Default                                  : Yes
Forced                                   : No

Menu
00:00:00.120                             : :Chapter 1
00:02:38.000                             : :Chapter 2
00:08:58.040                             : :Chapter 3
00:18:04.040                             : :Chapter 4
00:24:19.040                             : :Chapter 5
00:34:55.040                             : :Chapter 6
00:42:02.120                             : :Chapter 7
00:48:26.960                             : :Chapter 8
00:57:41.000                             : :Chapter 9
01:04:23.120                             : :Chapter 10
01:10:39.920                             : :Chapter 11
01:17:12.920                             : :Chapter 12


[/spoiler]

[/color]


Files list

- L'insegnante viene a casa - The School Teacher in House (1978).H264.ita.eng.sub.eng-MIRCrew.eng.idx File size : 41.24 KB
- L'insegnante viene a casa - The School Teacher in House (1978).H264.ita.eng.sub.eng-MIRCrew.eng.sub File size : 4.41 MB
- L'insegnante viene a casa - The School Teacher in House (1978).H264.ita.eng.sub.eng-MIRCrew.mkv File size : 1.07 GB

Disqus