Chat
Users Online
+ 15 Guests online in the last 24 hours.

Welcome to our newest member, Andreasujg
Ads
Torrent name: Drone (2017).720p.H264.italian.English.Ac3-5.1.sub.ita.MIRCrew
File size: 1.66 GB
Seeds: 28
Leechs: 43
Categories: Apps
Torrent hash: 885ddbfccbb8c30844dd7e241e83ce6513821e56
Social Share:
Uploader: robbyrs
Verified torrent:
    - udp://tracker.coppersurfer.tk:6969/announce
    - udp://tracker.torrent.eu.org:451/announce
    - udp://tracker.pirateparty.gr:6969/announce
    - udp://tracker.opentrackr.org:1337/announce
    - udp://tracker.leechers-paradise.org:6969/announce
    - udp://tracker.eddie4.nl:6969/announce
    - udp://shadowshq.yi.org:6969/announce
    - udp://shadowshq.eddie4.nl:6969/announce
    - udp://inferno.demonoid.pw:3391/announce
    - udp://eddie4.nl:6969/announce
    - udp://9.rarbg.to:2730/announce
    - udp://9.rarbg.com:2710/announce
    - udp://9.rarbg.me:2780/announce
    - udp://62.138.0.158:6969/announce
    - udp://151.80.120.114:2710/announce
Download Drone (2017).720p.H264.italian.English.Ac3-5.1.sub.ita.MIRCrew
Download .torrent   Magnet Link
Torrent detail

Drone (2017).720p.H264.italian.English.Ac3-5.1.sub.ita.MIRCrew

Drone (2017).720p.H264.italian.English.Ac3-5.1.sub.ita.MIRCrew

[color=red][img]https://worldimages.gallery/images/2018/02/06/kshNK.jpg[/img]
NO FOUND ONLY ORIGINAL RELEASE

[img]https://worldimages.gallery/images/2017/09/02/4716a3153385da57f9bf0ad75d1cdd7a.gif[/img]

My release is always in double track audio italian and Original audio
for select it use VLC or dvd player home
not use wmp

Drone (2017)

Quality MIRCrew on HD 720p da  1,7 gb

[url=https://extraimage.net/image/snJq][img]https://extraimage.net/images/2018/06/08/c3b339e7cda823fa3bd21a6c9770ec36.png[/img][/url]

[URL=https://www.imdb.com/title/tt5352846/][IMG]https://www.userlogos.org/files/logos/Sucka/imdb_new.png[/IMG][/URL]

[img]https://worldimages.gallery/images/2018/01/28/kVBug.png[/img]

    GENERE: Thriller
    ANNO: 2017
    REGIA: Jason Bourque
    PAESE: Canada

[img]https://worldimages.gallery/images/2018/01/28/kVlLX.png[/img]

Sean Bean, Mary McCormack, Joel David Moore, Patrick Sabongui, Kirby Morrow

[img]https://worldimages.gallery/images/2018/01/28/kVnEn.png[/img]

E' la storia di un uomo che opera a distanza sugli scenari di guerra internazionali ma che vede la sua routine sconvolta quando un misterioso uomo d'affari pakistano, forse intenzionato a vendicarsi, inizia a perseguitarlo.

[img]https://worldimages.gallery/images/2018/01/28/kVI50.png[/img]

Neil (Sean Bean) is a private drone contractor who spends his workdays flying covert missions then returns to a family life of suburban mediocrity - without his wife or son knowing about his secret life and Neil wife is cheating with one of co -worker - until a whistle-blowing site exposes him to a deadly threat. Believing he is responsible for the deaths of his wife and child, an enigmatic Pakistani businessman (Patrick Sabongui) tracks him down, leading to a harrowing confrontation.

[img]https://worldimages.gallery/images/2018/01/28/kVQto.png[/img]

[url=https://extraimage.net/image/snJS][img]https://extraimage.net/images/2018/06/08/147f21dae9e199360a3e1caf60024850.png[/img][/url]

[url=https://extraimage.net/image/snJO][img]https://extraimage.net/images/2018/06/08/e595e2baedc4454461166ddc5028647d.png[/img][/url]

[url=https://extraimage.net/image/snJL][img]https://extraimage.net/images/2018/06/08/d0ed43858ce1370383f16e0557d63e01.th.png[/img][/url] [url=https://extraimage.net/image/snJy][img]https://extraimage.net/images/2018/06/08/03c98d94f7f267b824190c0e195b9cfc.th.png[/img][/url] [url=https://extraimage.net/image/snJQ][img]https://extraimage.net/images/2018/06/08/b09a8df06beb66492e69b18087f77f8d.th.png[/img][/url]
[img]https://worldimages.gallery/images/2018/01/28/kVeA6.png[/img]

[spoiler]
General
Unique ID                                : 133802274399221811355805925071522271339 (0x64A96174D9E8974824645AFC9D36906B)
Complete name                            : Drone (2017).720p.h264.ita.eng.sub.eng-MIRCrewDrone (2017).720p.h264.ita.eng.sub.ita-MIRCrew.mkv
Format                                   : Matroska
Format version                           : Version 2
File size                                : 1.65 GiB
Duration                                 : 1h 29mn
Overall bit rate                         : 2 644 Kbps
Movie name                               : MIRCrew
Encoded date                             : UTC 2018-06-07 13:06:10
Writing application                      : Lavf54.63.100
Writing library                          : Lavf54.63.100

Video
ID                                       : 1
Format                                   : AVC
Format/Info                              : Advanced Video Codec
Format profile                           : [email protected]
Format settings, CABAC                   : Yes
Format settings, ReFrames                : 2 frames
Codec ID                                 : V_MPEG4/ISO/AVC
Duration                                 : 1h 29mn
Bit rate                                 : 1 900 Kbps
Width                                    : 1 280 pixels
Height                                   : 528 pixels
Display aspect ratio                     : 2.40:1
Frame rate mode                          : Variable
Frame rate                               : 23.976 fps
Color space                              : YUV
Chroma subsampling                       : 4:2:0
Bit depth                                : 8 bits
Scan type                                : Progressive
Bits/(Pixel*Frame)                       : 0.117
Stream size                              : 1.14 GiB (69%)
Writing library                          : x264 core 130 r2273
Encoding settings                        : cabac=1 / ref=2 / deblock=1:0:0 / analyse=0x1:0x131 / me=hex / subme=7 / psy=1 / psy_rd=1.00:0.00 / mixed_ref=0 / me_range=16 / chroma_me=1 / trellis=1 / 8x8dct=0 / cqm=0 / deadzone=21,11 / fast_pskip=1 / chroma_qp_offset=-2 / threads=3 / lookahead_threads=1 / sliced_threads=0 / nr=0 / decimate=1 / interlaced=0 / bluray_compat=0 / constrained_intra=0 / bframes=3 / b_pyramid=0 / b_adapt=1 / b_bias=0 / direct=3 / weightb=1 / open_gop=0 / weightp=2 / keyint=230 / keyint_min=23 / scenecut=40 / intra_refresh=0 / rc_lookahead=40 / rc=abr / mbtree=1 / bitrate=1900 / ratetol=1.0 / qcomp=0.60 / qpmin=10 / qpmax=69 / qpstep=4 / vbv_maxrate=24000 / vbv_bufsize=24000 / nal_hrd=none / ip_ratio=1.40 / aq=1:1.00
Language                                 : Italian
Default                                  : Yes
Forced                                   : No
DURATION                                 : 01:29:36.330000000
NUMBER_OF_FRAMES                         : 128903
NUMBER_OF_BYTES                          : 6485358078
_STATISTICS_WRITING_APP                  : mkvmerge v9.5.0 ('Quiet Fire') 64bit
_STATISTICS_WRITING_DATE_UTC             : 2018-06-04 09:53:13
_STATISTICS_TAGS                         : BPS DURATION NUMBER_OF_FRAMES NUMBER_OF_BYTES

Audio #1
ID                                       : 2
Format                                   : AC-3
Format/Info                              : Audio Coding 3
Mode extension                           : CM (complete main)
Codec ID                                 : A_AC3
Duration                                 : 1h 29mn
Bit rate mode                            : Constant
Bit rate                                 : 384 Kbps
Channel(s)                               : 6 channels
Channel positions                        : Front: L C R, Side: L R, LFE
Sampling rate                            : 48.0 KHz
Bit depth                                : 16 bits
Compression mode                         : Lossy
Delay relative to video                  : 1mn 5s
Stream size                              : 246 MiB (15%)
Language                                 : Italian
Default                                  : Yes
Forced                                   : No
DURATION                                 : 01:29:36.416000000
NUMBER_OF_FRAMES                         : 168013
NUMBER_OF_BYTES                          : 258067968
_STATISTICS_WRITING_APP                  : mkvmerge v9.5.0 ('Quiet Fire') 64bit
_STATISTICS_WRITING_DATE_UTC             : 2018-06-04 09:53:13
_STATISTICS_TAGS                         : BPS DURATION NUMBER_OF_FRAMES NUMBER_OF_BYTES

Audio #2
ID                                       : 3
Format                                   : AC-3
Format/Info                              : Audio Coding 3
Mode extension                           : CM (complete main)
Codec ID                                 : A_AC3
Duration                                 : 1h 29mn
Bit rate mode                            : Constant
Bit rate                                 : 384 Kbps
Channel(s)                               : 6 channels
Channel positions                        : Front: L C R, Side: L R, LFE
Sampling rate                            : 48.0 KHz
Bit depth                                : 16 bits
Compression mode                         : Lossy
Delay relative to video                  : 1mn 5s
Stream size                              : 246 MiB (15%)
Language                                 : English
Default                                  : No
Forced                                   : No
DURATION                                 : 01:29:36.384000000
NUMBER_OF_FRAMES                         : 168012
NUMBER_OF_BYTES                          : 430110720
_STATISTICS_WRITING_APP                  : mkvmerge v9.5.0 ('Quiet Fire') 64bit
_STATISTICS_WRITING_DATE_UTC             : 2018-06-04 09:53:13
_STATISTICS_TAGS                         : BPS DURATION NUMBER_OF_FRAMES NUMBER_OF_BYTES

Menu
00:00:00.000                             : :00:00:00.000
00:07:05.342                             : :00:07:05.342
00:14:28.201                             : :00:14:28.201
00:20:13.838                             : :00:20:13.838
00:29:27.099                             : :00:29:27.099
00:39:02.590                             : :00:39:02.590
00:50:56.804                             : :00:50:56.804
00:59:52.756                             : :00:59:52.756
01:08:53.129                             : :01:08:53.129
01:16:19.950                             : :01:16:19.950
01:22:27.706                             : :01:22:27.706



[/spoiler]

[/color]

Files list

- Drone (2017).720p.h264.ita.eng.sub.ita-MIRCrew.eng.txt File size : 72.08 KB
- Drone (2017).720p.h264.ita.eng.sub.ita-MIRCrew.mkv File size : 1.65 GB
- Drone (2017).720p.h264.ita.eng.sub.ita-MIRCrew.srt File size : 2.42 KB

Disqus