Chat
Users Online
+ 16 Guests online in the last 24 hours.

Welcome to our newest member, CindyWardy
Ads
Torrent name: The.Assassin.2015.BRRip.480p.x264.AAC-VYTO [P2PDL]
File size: 405.6 MB
Seeds: 242
Leechs: 284
Categories: Movies SD
Torrent hash: 39decab89bc2267b964ce0210accf4b1aa215531
Social Share:
Uploader: VYTO
Verified torrent:
    - udp://tracker.coppersurfer.tk:6969/announce
    - udp://tracker.openbittorrent.com:80/announce
    - udp://tracker.istole.it:80/announce
    - udp://tracker.opentrackr.org:1337/announce
    - udp://9.rarbg.to:2710/announce
    - http://tracker.aletorrenty.pl:2710/announce
    - udp://9.rarbg.me:2710/announce
    - udp://torrent.gresille.org:80/announce
    - udp://tracker.sktorrent.net:6969/announce
    - http://tracker.ex.ua/announce
    - udp://p4p.arenabg.com:1337/announce
    - http://ipv4.tracker.harry.lu:80/announce
    - udp://tracker.leechers-paradise.org:6969/announce
    - udp://tracker.glotorrents.com:6969/announce
    - udp://tracker.blackunicorn.xyz:6969/announce
Download The.Assassin.2015.BRRip.480p.x264.AAC-VYTO [P2PDL]
Download .torrent   Magnet Link
Torrent detail

The.Assassin.2015.BRRip.480p.x264.AAC-VYTO [P2PDL]

The.Assassin.2015.BRRip.480p.x264.AAC-VYTO


Genre: Drama 
http://www.imdb.com/title/tt3508840/


Format                                   : MPEG-4
File size                                : 401 MiB
Duration                                 : 1h 45mn
Overall bit rate                         : 532 Kbps

Video
Format                                   : AVC
Duration                                 : 1h 45mn
Bit rate                                 : 497 Kbps
Width                                    : 1 280 pixels
Height                                   : 688 pixels
Display aspect ratio                     : 1.85:1
Frame rate mode                          : Constant
Frame rate                               : 24.000 fps
Bit depth                                : 8 bits
Stream size                              : 375 MiB (93%)
Writing library                          : x264

Audio
Format                                   : AAC
Bit rate mode                            : Variable
Bit rate                                 : 31.8 Kbps
Channel(s)                               : 2 channels
Channel positions                        : Front: L R 
Sampling rate                            : 48.0 KHz 
Frame rate                               : 23.438 fps 
Stream size                              : 24.0 MiB (6%)
Language                                 : Chinese

Subtitle                                 : Yes (English)

Screen Shots: (Click to view)

Xvyu2stgI.png dXulAJ.png M5qgXj.png ZHTlbEY.png DFH5rM7u.png xJ6N5AlI.png mulc7.png 7r51RxLCG.png

Files list

- The.Assassin.2015.BRRip.480p.x264.AAC-VYTO.mp4 File size : 401.13 MB
- Sample.mp4 File size : 4.4 MB
- VYTO.png File size : 39.3 KB
- The.Assassin.2015.BRRip.480p.x264.AAC-VYTO.srt File size : 21.5 KB
- The.Assassin.2015.BRRip.480p.x264.AAC-VYTO.nfo File size : 2.33 KB
- Torrent downloaded from demonoid.pw.txt File size : 46 B
- Torrent downloaded from p2pdl.com.txt File size : 33 B

Disqus