Chat
Users Online
roflcopter2110 + 16 Guests online in the last 24 hours.

Welcome to our newest member, CindyWardy
Ads
Torrent name: Little.Buddha.1993.BRRip.720p.x264.AAC-PRiSTiNE [P2PDL]
File size: 810.92 MB
Seeds: 97
Leechs: 89
Categories: Movies HD
Torrent hash: 683fd93f40e94a9f6a1cee8ce2fe2e6ea3cb8f51
Social Share:
Uploader: VYTO
Verified torrent:
    - udp://tracker.coppersurfer.tk:6969/announce
    - udp://tracker.openbittorrent.com:80/announce
    - udp://tracker.istole.it:80/announce
    - udp://tracker.opentrackr.org:1337/announce
    - udp://9.rarbg.to:2710/announce
    - http://tracker.aletorrenty.pl:2710/announce
    - udp://9.rarbg.me:2710/announce
    - udp://torrent.gresille.org:80/announce
    - udp://tracker.sktorrent.net:6969/announce
    - http://tracker.ex.ua/announce
    - udp://p4p.arenabg.com:1337/announce
    - http://ipv4.tracker.harry.lu:80/announce
    - udp://tracker.leechers-paradise.org:6969/announce
    - udp://tracker.glotorrents.com:6969/announce
    - udp://tracker.blackunicorn.xyz:6969/announce
Download Little.Buddha.1993.BRRip.720p.x264.AAC-PRiSTiNE [P2PDL]
Download .torrent   Magnet Link
Torrent detail

Little.Buddha.1993.BRRip.720p.x264.AAC-PRiSTiNE [P2PDL]

Little.Buddha.1993.BRRip.720p.x264.AAC-PRiSTiNE


Genre: Drama 
http://www.imdb.com/title/tt0107426/


Format                                   : MPEG-4
File size                                : 802 MiB
Duration                                 : 2h 20mn
Overall bit rate                         : 797 Kbps

Video
Format                                   : AVC
Bit rate                                 : 714 Kbps
Width                                    : 1 280 pixels
Height                                   : 640 pixels
Frame rate mode                          : Constant
Frame rate                               : 24.000 fps
Color space                              : YUV
Chroma subsampling                       : 4:2:0
Bit depth                                : 8 bits
Stream size                              : 718 MiB (90%)
Writing library                          : x264

Audio
Format                                   : AAC
Bit rate mode                            : Variable
Bit rate                                 : 79.9 Kbps
Channel(s)                               : 2 channels
Channel positions                        : Front: L R
Sampling rate                            : 48.0 KHz
Stream size                              : 80.4 MiB (10%)
Language                                 : English

Subtitle                                 : Yes (English)

SosLH.png eXKpcx.png Ai7Ejlh.png PXhTGxHZ.png Xausyj4T.png sJdqz4p.png ZFOJXej.png

Files list

- Little.Buddha.1993.BRRip.720p.x264.AAC-PRiSTiNE.mp4 File size : 801.74 MB
- Sample.mp4 File size : 9.05 MB
- Little.Buddha.1993.BRRip.720p.x264.AAC-PRiSTiNE.srt File size : 84.87 KB
- VYTO.png File size : 39.3 KB
- Little.Buddha.1993.BRRip.720p.x264.AAC-PRiSTiNE.nfo File size : 2.32 KB
- Torrent downloaded from demonoid.pw.txt File size : 46 B
- Torrent downloaded from p2pdl.com.txt File size : 33 B

Disqus