Chat
Users Online
+ 10 Guests online in the last 24 hours.

Welcome to our newest member, SahibDM
Ads
Torrent name: Beyond Skyline (2017).720p.H264.italian.english.Ac3-5.1.sub.ita.eng-MIRCrew
File size: 1.98 GB
Seeds: 96
Leechs: 317
Categories: Movies HD
Torrent hash: 3dacf70fc726758faa02a23df2ba55019d61bbfd
Social Share:
Uploader: robbyrs
Verified torrent:
    - udp://tracker.coppersurfer.tk:6969/announce
    - udp://tracker.torrent.eu.org:451/announce
    - udp://tracker.pirateparty.gr:6969/announce
    - udp://tracker.opentrackr.org:1337/announce
    - udp://tracker.leechers-paradise.org:6969/announce
    - udp://tracker.eddie4.nl:6969/announce
    - udp://shadowshq.yi.org:6969/announce
    - udp://shadowshq.eddie4.nl:6969/announce
    - udp://inferno.demonoid.pw:3391/announce
    - udp://eddie4.nl:6969/announce
    - udp://9.rarbg.to:2730/announce
    - udp://9.rarbg.com:2710/announce
    - udp://9.rarbg.me:2780/announce
    - udp://62.138.0.158:6969/announce
    - udp://151.80.120.114:2710/announce
Download Beyond Skyline (2017).720p.H264.italian.english.Ac3-5.1.sub.ita.eng-MIRCrew
Download .torrent   Magnet Link
Torrent detail

Beyond Skyline (2017).720p.H264.italian.english.Ac3-5.1.sub.ita.eng-MIRCrew

Beyond Skyline (2017).720p.H264.italian.english.Ac3-5.1.sub.ita.eng-MIRCrew

[b][color=red][img]https://extraimage.net/images/2018/06/28/629d876c7be492a522e9b54e228535f9.jpg[/img]
NO FOUND ONLY ORIGINAL RELEASE



My release is always in double track audio italian and Original audio
for select it use VLC or dvd player home
not use wmp

Beyond Skyline (2017)

Quality MIRCrew on HD 720p da  1,9 gb

[img]https://boltimg.com/images/U8Dhn3.png[/img]


[URL=https://www.imdb.com/title/tt1724970/][IMG]https://www.userlogos.org/files/logos/Sucka/imdb_new.png[/IMG][/URL]

[img]https://s19.postimg.cc/bgh0za7kj/banner_scheda.gif[/img]

Titolo originale: Beyond Skyline
Paese: USA/Singapore, 2017
Genere: Fantascienza
Regia: Liam O’Donnell

[img]https://s19.postimg.cc/dwnfqvf0z/banner_cast.gif[/img]

Frank Grillo, Bojana Novakovic, Jonny Weston, Iko Uwais, Callan Mulvey, Antonio Fargas, Yayan Ruhian, Pamelyn Chee, Jacob Vargas

[img]https://s19.postimg.cc/i9hdvjydv/banner_trama.gif[/img]

Mark (Frank Grillo) è un detective della polizia di Los Angeles che si sta prendendo una pausa dalla risoluzione dei crimini dopo la morte di sua moglie. Trent (Jonny Weston) è il suo problematico figlio adolescente a un passo dal finire in carcere.

[img]https://s19.postimg.cc/nwdqt10wj/banner_storyline.gif[/img]

A tough-as-nails detective embarks on a relentless pursuit to free his son from a nightmarish alien warship..

[img]https://boltimg.com/images/U8Dq0Z.png[/img]
[img]https://boltimg.com/images/U8DkSM.png[/img]
[img]https://boltimg.com/images/U8DGvc.png[/img]



[img]https://s19.postimg.cc/f07k2tzo3/banner_dati_file.gif[/img]


General
Unique ID                                : 255498487767470544697378551328211952070 (0xC03738057C4C889202E72BCDA89761C6)
Complete name                            : Beyond Skyline (2017).720p.h264.ita.eng.sub.ita.eng-MIRCrewBeyond Skyline (2017).720p.h264.ita.eng.sub.ita.eng-MIRCrew.mkv
Format                                   : Matroska
Format version                           : Version 2
File size                                : 1.98 GiB
Duration                                 : 1h 46mn
Overall bit rate                         : 2 652 Kbps
Movie name                               : MIRCrew
Encoded date                             : UTC 2018-10-05 22:00:37
Writing application                      : Lavf54.63.100
Writing library                          : Lavf54.63.100

Video
ID                                       : 1
Format                                   : AVC
Format/Info                              : Advanced Video Codec
Format profile                           : [email protected]
Format settings, CABAC                   : Yes
Format settings, ReFrames                : 2 frames
Codec ID                                 : V_MPEG4/ISO/AVC
Duration                                 : 1h 46mn
Bit rate                                 : 1 900 Kbps
Width                                    : 1 280 pixels
Height                                   : 528 pixels
Display aspect ratio                     : 2.40:1
Frame rate mode                          : Variable
Frame rate                               : 23.976 fps
Color space                              : YUV
Chroma subsampling                       : 4:2:0
Bit depth                                : 8 bits
Scan type                                : Progressive
Bits/(Pixel*Frame)                       : 0.117
Stream size                              : 1.36 GiB (69%)
Writing library                          : x264 core 130 r2273
Encoding settings                        : cabac=1 / ref=2 / deblock=1:0:0 / analyse=0x1:0x131 / me=hex / subme=7 / psy=1 / psy_rd=1.00:0.00 / mixed_ref=0 / me_range=16 / chroma_me=1 / trellis=1 / 8x8dct=0 / cqm=0 / deadzone=21,11 / fast_pskip=1 / chroma_qp_offset=-2 / threads=6 / lookahead_threads=1 / sliced_threads=0 / nr=0 / decimate=1 / interlaced=0 / bluray_compat=0 / constrained_intra=0 / bframes=3 / b_pyramid=0 / b_adapt=1 / b_bias=0 / direct=3 / weightb=1 / open_gop=0 / weightp=2 / keyint=230 / keyint_min=23 / scenecut=40 / intra_refresh=0 / rc_lookahead=40 / rc=abr / mbtree=1 / bitrate=1900 / ratetol=1.0 / qcomp=0.60 / qpmin=10 / qpmax=69 / qpstep=4 / vbv_maxrate=24000 / vbv_bufsize=24000 / nal_hrd=none / ip_ratio=1.40 / aq=1:1.00
Language                                 : Italian
Default                                  : Yes
Forced                                   : No
DURATION                                 : 01:46:38.851000000
NUMBER_OF_FRAMES                         : 153419
NUMBER_OF_BYTES                          : 2913187699
_STATISTICS_WRITING_APP                  : mkvmerge v26.0.0 ('In The Game') 64-bit
_STATISTICS_WRITING_DATE_UTC             : 2018-09-16 09:34:24
_STATISTICS_TAGS                         : BPS DURATION NUMBER_OF_FRAMES NUMBER_OF_BYTES

Audio #1
ID                                       : 2
Format                                   : AC-3
Format/Info                              : Audio Coding 3
Mode extension                           : CM (complete main)
Codec ID                                 : A_AC3
Duration                                 : 1h 46mn
Bit rate mode                            : Constant
Bit rate                                 : 384 Kbps
Channel(s)                               : 6 channels
Channel positions                        : Front: L C R, Side: L R, LFE
Sampling rate                            : 48.0 KHz
Bit depth                                : 16 bits
Compression mode                         : Lossy
Delay relative to video                  : 1mn 5s
Stream size                              : 293 MiB (14%)
Language                                 : Italian
Default                                  : Yes
Forced                                   : No
DURATION                                 : 01:46:38.848000000
NUMBER_OF_FRAMES                         : 199964
NUMBER_OF_BYTES                          : 307144704
_STATISTICS_WRITING_APP                  : mkvmerge v26.0.0 ('In The Game') 64-bit
_STATISTICS_WRITING_DATE_UTC             : 2018-09-16 09:34:24
_STATISTICS_TAGS                         : BPS DURATION NUMBER_OF_FRAMES NUMBER_OF_BYTES

Audio #2
ID                                       : 3
Format                                   : AC-3
Format/Info                              : Audio Coding 3
Mode extension                           : CM (complete main)
Codec ID                                 : A_AC3
Duration                                 : 1h 46mn
Bit rate mode                            : Constant
Bit rate                                 : 384 Kbps
Channel(s)                               : 6 channels
Channel positions                        : Front: L C R, Side: L R, LFE
Sampling rate                            : 48.0 KHz
Bit depth                                : 16 bits
Compression mode                         : Lossy
Delay relative to video                  : 1mn 5s
Stream size                              : 293 MiB (14%)
Language                                 : English
Default                                  : No
Forced                                   : No
DURATION                                 : 01:46:38.848000000
NUMBER_OF_FRAMES                         : 599892
NUMBER_OF_BYTES                          : 1206982704
_STATISTICS_WRITING_APP                  : mkvmerge v26.0.0 ('In The Game') 64-bit
_STATISTICS_WRITING_DATE_UTC             : 2018-09-16 09:34:24
_STATISTICS_TAGS                         : BPS DURATION NUMBER_OF_FRAMES NUMBER_OF_BYTES

Menu
00:00:00.000                             : :00:00:00.000
00:07:42.587                             : :00:07:42.587
00:16:46.172                             : :00:16:46.172
00:24:08.947                             : :00:24:08.947
00:33:19.998                             : :00:33:19.998
00:42:11.112                             : :00:42:11.112
00:51:07.439                             : :00:51:07.439
00:59:55.717                             : :00:59:55.717
01:08:09.627                             : :01:08:09.627
01:18:35.961                             : :01:18:35.961
01:26:59.089                             : :01:26:59.089
01:35:50.453                             : :01:35:50.453





[/color][/b]


Files list

- Beyond Skyline (2017).720p.h264.ita.eng.sub.ita.eng-MIRCrew.eng.srt File size : 123 B
- Beyond Skyline (2017).720p.h264.ita.eng.sub.ita.eng-MIRCrew.ita.srt File size : 50.88 KB
- Beyond Skyline (2017).720p.h264.ita.eng.sub.ita.eng-MIRCrew.mkv File size : 1.98 GB
- Beyond Skyline (2017).720p.h264.ita.eng.sub.ita.eng-MIRCrew.srt File size : 348 B
- by MIRCrew.txt File size : 76 B

Disqus