Chat
Users Online
+ 8 Guests online in the last 24 hours.

Welcome to our newest member, maryannds2
Ads
Torrent name: The Mule - Il Corriere (2018).720p.H264.italian.english.Ac3-5.1.sub.ita.eng-MIRCrew
File size: 2.4 GB
Seeds: 6
Leechs: 246
Categories: Movies HD
Torrent hash: 55a674a9c3e880b40bd9d307623f71e56534d1b0
Social Share:
Uploader: robbyrs
Verified torrent:
    - udp://tracker.coppersurfer.tk:6969/announce
    - udp://tracker.torrent.eu.org:451/announce
    - udp://tracker.pirateparty.gr:6969/announce
    - udp://tracker.opentrackr.org:1337/announce
    - udp://tracker.leechers-paradise.org:6969/announce
    - udp://tracker.eddie4.nl:6969/announce
    - udp://shadowshq.yi.org:6969/announce
    - udp://shadowshq.eddie4.nl:6969/announce
    - udp://inferno.demonoid.pw:3391/announce
    - udp://eddie4.nl:6969/announce
    - udp://9.rarbg.to:2730/announce
    - udp://9.rarbg.com:2710/announce
    - udp://9.rarbg.me:2780/announce
    - udp://62.138.0.158:6969/announce
    - udp://151.80.120.114:2710/announce
Download The Mule - Il Corriere (2018).720p.H264.italian.english.Ac3-5.1.sub.ita.eng-MIRCrew
Download .torrent   Magnet Link
Torrent detail

The Mule - Il Corriere (2018).720p.H264.italian.english.Ac3-5.1.sub.ita.eng-MIRCrew

The Mule - Il Corriere (2018).720p.H264.italian.english.Ac3-5.1.sub.ita.eng-MIRCrew


NO FOUND ONLY ORIGINAL RELEASE

My release is always in double track audio italian and Original audio
for select it use VLC or dvd player home
not use wmp

Il Corriere - The Mule (2018)

Quality MIRCrew on HD 720p da  2,4 gb










   GENERE: Drammmatico
   ANNO: 2018
   REGIA: Clint Eastwood
   PAESE: USA
   DURATA: 116 Min



Clint Eastwood, Bradley Cooper, Laurence Fishburne, Michael Peña, Dianne Wiest, Andy Garcia, Alison Eastwood, Taissa Farmiga, Ignacio Serricchio, Lobo Sebastian, Clifton Collins Jr., Manny Montana, Jill Flint, Robert Lasardo, Loren Dean



Costretto a chiudere la sua attività imprenditoriale, Stone si ritrova solo e senza soldi. La sua unica possibilità di salvezza sembra legata a un lavoro che gli viene offerto, un lavoro per il quale è richiesta unicamente l'abilità di guidare una macchina.



Forced to close his business, Stone finds himself alone and without money. His only chance of salvation seems to be linked to a job that is offered to him, a job for which only the ability to drive a car is required.





General
Unique ID                                : 243823917485896639225344130456473330358 (0xB76EC7443306DB899ABC0224C6C062B6)
Complete name                            : Il Corriere - The Mule (2018).720p.h264.ita.eng.sub.ita.eng-MIRCrewIl Corriere - The Mule (2018).720p.h264.ita.eng.sub.ita.eng-MIRCrew.mkv
Format                                   : Matroska
Format version                           : Version 2
File size                                : 2.40 GiB
Duration                                 : 1h 56mn
Overall bit rate                         : 2 945 Kbps
Movie name                               : MIRCrew
Encoded date                             : UTC 2019-04-17 06:28:09
Writing application                      : mkvmerge v5.8.0 ('No Sleep / Pillow') built on Sep  2 2012 15:37:04
Writing library                          : Lavf54.63.100

Video
ID                                       : 1
Format                                   : AVC
Format/Info                              : Advanced Video Codec
Format profile                           : [email protected]
Format settings, CABAC                   : Yes
Format settings, ReFrames                : 2 frames
Codec ID                                 : V_MPEG4/ISO/AVC
Duration                                 : 1h 56mn
Bit rate                                 : 2 000 Kbps
Width                                    : 1 920 pixels
Height                                   : 804 pixels
Display aspect ratio                     : 2.40:1
Frame rate mode                          : Variable
Frame rate                               : 23.976 fps
Color space                              : YUV
Chroma subsampling                       : 4:2:0
Bit depth                                : 8 bits
Scan type                                : Progressive
Bits/(Pixel*Frame)                       : 0.054
Stream size                              : 1.57 GiB (65%)
Title                                    : MIRCrew
Writing library                          : x264 core 130 r2273
Encoding settings                        : cabac=1 / ref=2 / deblock=1:0:0 / analyse=0x1:0x131 / me=hex / subme=7 / psy=1 / psy_rd=1.00:0.00 / mixed_ref=0 / me_range=16 / chroma_me=1 / trellis=1 / 8x8dct=0 / cqm=0 / deadzone=21,11 / fast_pskip=1 / chroma_qp_offset=-2 / threads=9 / lookahead_threads=1 / sliced_threads=0 / nr=0 / decimate=1 / interlaced=0 / bluray_compat=0 / constrained_intra=0 / bframes=3 / b_pyramid=0 / b_adapt=1 / b_bias=0 / direct=3 / weightb=1 / open_gop=0 / weightp=2 / keyint=230 / keyint_min=23 / scenecut=40 / intra_refresh=0 / rc_lookahead=40 / rc=abr / mbtree=1 / bitrate=2000 / ratetol=1.0 / qcomp=0.60 / qpmin=10 / qpmax=69 / qpstep=4 / vbv_maxrate=24000 / vbv_bufsize=24000 / nal_hrd=none / ip_ratio=1.40 / aq=1:1.00
Language                                 : Italian
Default                                  : Yes
Forced                                   : No

Audio #1
ID                                       : 2
Format                                   : AC-3
Format/Info                              : Audio Coding 3
Mode extension                           : CM (complete main)
Codec ID                                 : A_AC3
Duration                                 : 1h 56mn
Bit rate mode                            : Constant
Bit rate                                 : 448 Kbps
Channel(s)                               : 6 channels
Channel positions                        : Front: L C R, Side: L R, LFE
Sampling rate                            : 48.0 KHz
Bit depth                                : 16 bits
Compression mode                         : Lossy
Delay relative to video                  : -42ms
Stream size                              : 373 MiB (15%)
Title                                    : Ita Ac3 5.1
Language                                 : English
Default                                  : Yes
Forced                                   : No

Audio #2
ID                                       : 3
Format                                   : AC-3
Format/Info                              : Audio Coding 3
Mode extension                           : CM (complete main)
Codec ID                                 : A_AC3
Duration                                 : 1h 56mn
Bit rate mode                            : Constant
Bit rate                                 : 512 Kbps
Channel(s)                               : 6 channels
Channel positions                        : Front: L C R, Side: L R, LFE
Sampling rate                            : 48.0 KHz
Bit depth                                : 16 bits
Compression mode                         : Lossy
Delay relative to video                  : -5ms
Stream size                              : 426 MiB (17%)
Title                                    : Eng Ac3 5.1
Language                                 : English
Default                                  : No
Forced                                   : No

Files list

- Il Corriere - The Mule (2018).720p.h264.ita.eng.sub.ita.eng-MIRCrew.eng.srt File size : 117.55 KB
- Il Corriere - The Mule (2018).720p.h264.ita.eng.sub.ita.eng-MIRCrew.ita.srt File size : 110.78 KB
- Il Corriere - The Mule (2018).720p.h264.ita.eng.sub.ita.eng-MIRCrew.mkv File size : 2.4 GB

Disqus