Chat
Users Online
+ 8 Guests online in the last 24 hours.

Welcome to our newest member, maryannds2
Ads
Torrent name: The 12TH Man - Caccia Al 12° Uomo - Den 12. mann (2018).720p.H264.italian.nor.Ac3-MIRCrew
File size: 2.64 GB
Seeds: 18
Leechs: 313
Categories: Movies HD
Torrent hash: 21d656f6efc57c9d79faa51bee5e10e96904d96d
Social Share:
Uploader: robbyrs
Verified torrent:
    - udp://tracker.coppersurfer.tk:6969/announce
    - udp://tracker.torrent.eu.org:451/announce
    - udp://tracker.pirateparty.gr:6969/announce
    - udp://tracker.opentrackr.org:1337/announce
    - udp://tracker.leechers-paradise.org:6969/announce
    - udp://tracker.eddie4.nl:6969/announce
    - udp://shadowshq.yi.org:6969/announce
    - udp://shadowshq.eddie4.nl:6969/announce
    - udp://inferno.demonoid.pw:3391/announce
    - udp://eddie4.nl:6969/announce
    - udp://9.rarbg.to:2730/announce
    - udp://9.rarbg.com:2710/announce
    - udp://9.rarbg.me:2780/announce
    - udp://62.138.0.158:6969/announce
    - udp://151.80.120.114:2710/announce
Download The 12TH Man - Caccia Al 12° Uomo - Den 12. mann (2018).720p.H264.italian.nor.Ac3-MIRCrew
Download .torrent   Magnet Link
Torrent detail

The 12TH Man - Caccia Al 12° Uomo - Den 12. mann (2018).720p.H264.italian.nor.Ac3-MIRCrew

The 12TH Man - Caccia Al 12° Uomo - Den 12. mann (2018).720p.H264.italian.nor.Ac3-MIRCrew


NO FOUND ONLY ORIGINAL RELEASE

My release is always in double track audio italian and Original audio
for select it use VLC or dvd player home
not use wmp

ENGLISH SUBTITLE INSIDE

SOTTOTITOLI ITALIANI PER NON UDENTI INCLUSI

Caccia Al 12° Uomo - Den 12. mann - The 12TH Man (2018)

Quality MIRCrew on HD 720p da  2,6 gb









GENERE: Drammatico
ANNO: 2017
REGIA: Harald Zwart
PAESE: Norvegia
DURATA: 135 Min



Thomas Gullestad, Jonathan Rhys Meyers, Marie Blokhus, Mads Sjøgård Pettersen, Vegar Hoel, Håkon T. Nielsen, Eirik Risholm Velle, Daniel Frikstad, Eric Dirnes, Alexander Zwart, Torgny Gerhard Aanderaa, Håkon Smeby, Axel Barø Aasen, Ole Victor Corral, Kim Jøran Olsen, Åsgeir Johansen, Martin Kiefer, David Vekony



Qui dodici soldati della Resistenza cercano di liberare la loro terra dalla minaccia tedesca, attraversando il Mare del Nord. Quando un loro connazionale li tradisce, i norvegesi vengono attaccati dai nazisti mentre si trovano in un fiordo desolato. Vengono tutti fatti prigionieri, torturati e trucidati, a parte uno, il dodicesimo



True World War II story about Jan Baalsruds, one of the 12 saboteurs sent in 1943 from England to the Nazi occupied Northern Norway. After their boat is sunk by the Germans, Jan goes on the run towards the neutral Sweden. However, the brutal weather conditions turn out to possibly be an even greater foe than the Nazi patrols.

   





General
Unique ID                                : 174208990165741758706926597379805734455 (0x830F6E5AE066A46587664AB535A8E637)
Complete name                            : Caccia Al 12° Uomo - Den 12. mann (2018).720p.ita.nor.sub.ita.NUita.eng-MIRCrewCaccia Al 12° Uomo - Den 12. mann (2018).720p.ita.nor.sub.ita.NUita-MIRCrew.mkv
Format                                   : Matroska
Format version                           : Version 2
File size                                : 2.64 GiB
Duration                                 : 2h 15mn
Overall bit rate                         : 2 791 Kbps
Movie name                               : MIRCrew
Encoded date                             : UTC 2019-04-14 12:26:53
Writing application                      : mkvmerge v5.8.0 ('No Sleep / Pillow') built on Sep  2 2012 15:37:04
Writing library                          : Lavf54.63.100
COMMENT                                  : mircrew-releases

Video
ID                                       : 1
Format                                   : AVC
Format/Info                              : Advanced Video Codec
Format profile                           : [email protected]
Format settings, CABAC                   : Yes
Format settings, ReFrames                : 2 frames
Codec ID                                 : V_MPEG4/ISO/AVC
Duration                                 : 2h 15mn
Bit rate                                 : 1 900 Kbps
Width                                    : 1 280 pixels
Height                                   : 528 pixels
Display aspect ratio                     : 2.40:1
Frame rate mode                          : Variable
Frame rate                               : 24.000 fps
Color space                              : YUV
Chroma subsampling                       : 4:2:0
Bit depth                                : 8 bits
Scan type                                : Progressive
Bits/(Pixel*Frame)                       : 0.117
Stream size                              : 1.74 GiB (66%)
Title                                    : MIRCrew
Writing library                          : x264 core 130 r2273
Encoding settings                        : cabac=1 / ref=2 / deblock=1:0:0 / analyse=0x1:0x131 / me=hex / subme=7 / psy=1 / psy_rd=1.00:0.00 / mixed_ref=0 / me_range=16 / chroma_me=1 / trellis=1 / 8x8dct=0 / cqm=0 / deadzone=21,11 / fast_pskip=1 / chroma_qp_offset=-2 / threads=9 / lookahead_threads=1 / sliced_threads=0 / nr=0 / decimate=1 / interlaced=0 / bluray_compat=0 / constrained_intra=0 / bframes=3 / b_pyramid=0 / b_adapt=1 / b_bias=0 / direct=3 / weightb=1 / open_gop=0 / weightp=2 / keyint=240 / keyint_min=24 / scenecut=40 / intra_refresh=0 / rc_lookahead=40 / rc=abr / mbtree=1 / bitrate=1900 / ratetol=1.0 / qcomp=0.60 / qpmin=10 / qpmax=69 / qpstep=4 / vbv_maxrate=24000 / vbv_bufsize=24000 / nal_hrd=none / ip_ratio=1.40 / aq=1:1.00
Language                                 : Italian
Default                                  : Yes
Forced                                   : No
DURATION                                 : 02:15:22.542000000
NUMBER_OF_FRAMES                         : 194941
NUMBER_OF_BYTES                          : 10100756620
_STATISTICS_WRITING_APP                  : mkvmerge v25.0.0 ('Prog Noir') 64-bit
_STATISTICS_WRITING_DATE_UTC             : 2019-04-13 20:29:23
_STATISTICS_TAGS                         : BPS DURATION NUMBER_OF_FRAMES NUMBER_OF_BYTES

Audio #1
ID                                       : 2
Format                                   : AC-3
Format/Info                              : Audio Coding 3
Mode extension                           : CM (complete main)
Codec ID                                 : A_AC3
Duration                                 : 2h 15mn
Bit rate mode                            : Constant
Bit rate                                 : 448 Kbps
Channel(s)                               : 6 channels
Channel positions                        : Front: L C R, Side: L R, LFE
Sampling rate                            : 48.0 KHz
Bit depth                                : 16 bits
Compression mode                         : Lossy
Delay relative to video                  : -5ms
Stream size                              : 434 MiB (16%)
Title                                    : Ita Ac3 5.1
Language                                 : Italian
Default                                  : Yes
Forced                                   : No
DURATION                                 : 02:15:24.096000000
NUMBER_OF_FRAMES                         : 253878
NUMBER_OF_BYTES                          : 649927680
_STATISTICS_WRITING_APP                  : mkvmerge v25.0.0 ('Prog Noir') 64-bit
_STATISTICS_WRITING_DATE_UTC             : 2019-04-13 20:29:23
_STATISTICS_TAGS                         : BPS DURATION NUMBER_OF_FRAMES NUMBER_OF_BYTES

Audio #2
ID                                       : 3
Format                                   : AC-3
Format/Info                              : Audio Coding 3
Mode extension                           : CM (complete main)
Codec ID                                 : A_AC3
Duration                                 : 2h 15mn
Bit rate mode                            : Constant
Bit rate                                 : 448 Kbps
Channel(s)                               : 6 channels
Channel positions                        : Front: L C R, Side: L R, LFE
Sampling rate                            : 48.0 KHz
Bit depth                                : 16 bits
Compression mode                         : Lossy
Delay relative to video                  : -5ms
Stream size                              : 434 MiB (16%)
Title                                    : Eng Ac3 5.1
Language                                 : English
Default                                  : No
Forced                                   : No
DURATION                                 : 02:15:24.096000000
NUMBER_OF_FRAMES                         : 253878
NUMBER_OF_BYTES                          : 649927680
_STATISTICS_WRITING_APP                  : mkvmerge v25.0.0 ('Prog Noir') 64-bit
_STATISTICS_WRITING_DATE_UTC             : 2019-04-13 20:29:23
_STATISTICS_TAGS                         : BPS DURATION NUMBER_OF_FRAMES NUMBER_OF_BYTES

Files list

- Caccia Al 12° Uomo - Den 12. mann (2018).720p.ita.nor.sub.ita.NUita-MIRCrew.eng.srt File size : 58.08 KB
- Caccia Al 12° Uomo - Den 12. mann (2018).720p.ita.nor.sub.ita.NUita-MIRCrew.ita.srt File size : 60.55 KB
- Caccia Al 12° Uomo - Den 12. mann (2018).720p.ita.nor.sub.ita.NUita-MIRCrew.mkv File size : 2.64 GB
- Caccia Al 12° Uomo - Den 12. mann (2018).720p.ita.nor.sub.ita.NUita-MIRCrew.NUita.srt File size : 62.64 KB

Disqus