Chat
Users Online
+ 14 Guests online in the last 24 hours.

Welcome to our newest member, Aclofova
Ads
Torrent name: Sherlock.The.Abominable.Bride.2016.HDRip.480p.x264.AAC-VYTO [P2PDL]
File size: 359.85 MB
Seeds: 7258
Leechs: 4335
Categories: Movies SD
Torrent hash: 3429565f3a6937d74623b2c928e0e29e87387c40
Social Share:
Uploader: VYTO
Verified torrent:
    - udp://tracker.coppersurfer.tk:6969/announce
    - udp://tracker.openbittorrent.com:80/announce
    - udp://tracker.istole.it:80/announce
    - udp://tracker.opentrackr.org:1337/announce
    - udp://9.rarbg.to:2710/announce
    - http://tracker.aletorrenty.pl:2710/announce
    - udp://9.rarbg.me:2710/announce
    - udp://torrent.gresille.org:80/announce
    - udp://tracker.sktorrent.net:6969/announce
    - http://tracker.ex.ua/announce
    - udp://p4p.arenabg.com:1337/announce
    - http://ipv4.tracker.harry.lu:80/announce
    - udp://tracker.leechers-paradise.org:6969/announce
    - udp://tracker.glotorrents.com:6969/announce
    - udp://tracker.blackunicorn.xyz:6969/announce
Download Sherlock.The.Abominable.Bride.2016.HDRip.480p.x264.AAC-VYTO [P2PDL]
Download .torrent   Magnet Link
Torrent detail

Sherlock.The.Abominable.Bride.2016.HDRip.480p.x264.AAC-VYTO [P2PDL]

Sherlock.The.Abominable.Bride.2016.HDRip.480p.x264.AAC-VYTO


Genre: Crime, Drama, Mystery
http://www.imdb.com/title/tt3845232/


Format                                   : MPEG-4
File size                                : 352 MiB
Duration                                 : 1h 28mn
Overall bit rate                         : 555 Kbps

Vide
Format                                   : AVC
Bit rate                                 : 520 Kbps
Width                                    : 720 pixels
Height                                   : 400 pixels
Display aspect ratio                     : 16:9
Frame rate mode                          : Constant
Frame rate                               : 25.000 fps
Bit depth                                : 8 bits
Stream size                              : 329 MiB (94%)
Writing library                          : x264 

Audio
Format                                   : AAC
Bit rate mode                            : Variable
Bit rate                                 : 32.0 Kbps
Channel(s)                               : 2 channels 
Channel positions                        : Front: L R 
Sampling rate                            : 48.0 KHz
Stream size                              : 20.3 MiB (6%)

Subtitle                                 : Yes (English)

Screen Shots: (Click to view)

jBRfK9SrM8.png vqQXwF.png O4mbE.png mVgZx.png TzGZEcjD.png IaWHgv.png WzPrQnN1.png oyVcuqeQ.png 1mQJqHA.png

Files list

- Sherlock.The.Abominable.Bride.2016.HDRip.480p.x264.AAC-VYTO.mp4 File size : 351.53 MB
- Sample.mp4 File size : 8.17 MB
- Sherlock.The.Abominable.Bride.2016.HDRip.480p.x264.AAC-VYTO.srt File size : 111.12 KB
- VYTO.png File size : 39.3 KB
- Sherlock.The.Abominable.Bride.2016.HDRip.480p.x264.AAC-VYTO.nfo File size : 2.25 KB
- Torrent downloaded from demonoid.pw.txt File size : 46 B
- Torrent downloaded from p2pdl.com.txt File size : 33 B

Disqus