Chat
Users Online
+ 14 Guests online in the last 24 hours.

Welcome to our newest member, Aclofova
Ads
Torrent name: Shandra The Jungle Girl (1999) DVDRIP Audio Hindi MP3 Audio Dubbed By --=!!Choseme!!=--
File size: 722.78 MB
Seeds: 206
Leechs: 325
Categories: Movies HD
Torrent hash: 06a080cc255496720fc29673b4379d489a52d9f4
Social Share:
Uploader: choseme
Verified torrent:
    - udp://9.rarbg.com:2710/announce
    - udp://9.rarbg.to:2710/announce
    - udp://glotorrents.pw:6969/announce
    - udp://tracker.opentrackr.org:1337/announce
    - udp://p4p.arenabg.ch:1337/announce
    - udp://glotorrents.pw:6969/announce
    - udp://tracker.glotorrents.com:6969/announce
    - udp://tracker.leechers-paradise.org:6969/announce
    - udp://tracker.aletorrenty.pl:2710/announce
    - udp://tracker.flashtorrents.org:6969/announce
    - http://tracker.flashtorrents.org:6969/announce
    - http://torrent.gresille.org/announce
Download Shandra The Jungle Girl (1999) DVDRIP Audio Hindi MP3 Audio Dubbed By --=!!Choseme!!=--
Download .torrent   Magnet Link
Torrent detail

Shandra The Jungle Girl (1999) DVDRIP Audio Hindi MP3 Audio Dubbed By --=!!Choseme!!=--

[center]

[img]http://s5.postimg.org/6jwo2gtxj/chosemed.png[/img]

[img]http://s5.postimg.org/dhqrp94ef/Poster.jpg[/IMG]

[img]http://s5.postimg.org/oy1s117yf/image.jpg[/img]
___________________________________________________________

 _  _  _______           _______  _______  _______  _______  _______  _  _ 
( )( )(  ____ |     /|(  ___  )(  ____ (  ____ (       )(  ____ ( )( )
| || || (    /| )   ( || (   ) || (    /| (    /| () () || (    /| || |
| || || |      | (___) || |   | || (_____ | (__    | || || || (__    | || |
| || || |      |  ___  || |   | |(_____  )|  __)   | |(_)| ||  __)   | || |
(_)(_)| |      | (   ) || |   | |      ) || (      | |   | || (      (_)(_)
 _  _ | (____/| )   ( || (___) |/____) || (____/| )   ( || (____/ _  _ 
(_)(_)(_______/|/     |(_______)_______)(_______/|/     |(_______/(_)(_)
                                                                           
===============================================================================
IMDB LINK:-www.imdb.com/title/tt2439946/
Genres: Action | Adventure | Sci-Fi | Thriller
===============================================================================
[color=red][size=7]Happy New Year 2016 To All [/size][/color]

[img]http://s5.postimg.org/pddvlq2rr/general_info.png[/img]

Format                      : Matroska
Format version              : Version 4 / Version 2
File size                   : 711 MiB
Duration                    : 1h 13mn
Overall bit rate            : 1 360 Kbps
Movie name                  : Shandra: The Jungle Girl (1999)(Lady Tarzen Jungle Love) DVDRIP Audio Hindi MP3 Audio Dubbed By --=!!Choseme!!=-- 

[img]http://s5.postimg.org/u33tabts7/Video_info.png[/img]

Format                      : AVC
Format/Info                 : Advanced Video Codec
Format profile              : [email protected]
Format settings, CABAC      : No
Format settings, ReFrames   : 1 frame
Format settings, GOP        : M=1, N=25
Codec ID                    : V_MPEG4/ISO/AVC
Duration                    : 1h 13mn
Bit rate                    : 1 230 Kbps
Width                       : 720 pixels
Height                      : 576 pixels
Display aspect ratio        : 16:9
Original display aspect rat : 5:4
Frame rate mode             : Constant
Frame rate                  : 29.970 fps
Original frame rate         : 29.000 fps
Color space                 : YUV
Chroma subsampling          : 4:2:0
Bit depth                   : 8 bits
Scan type                   : Progressive
Bits/(Pixel*Frame)          : 0.099
Stream size                 : 643 MiB (90%)
Title                       : Shandra: The Jungle Girl (1999)(Lady Tarzen Jungle Love) Hindi MP3 Audio Dubbed By --=!!Choseme!!=--

[img]http://s5.postimg.org/mi0seuyrr/audio_info.png[/img]

Audio

Format                      : MPEG Audio
Format version              : Version 1
Format profile              : Layer 3
Mode                        : Joint stereo
Mode extension              : MS Stereo
Codec ID                    : A_MPEG/L3
Codec ID/Hint               : MP3
Duration                    : 1h 13mn
Bit rate mode               : Constant
Bit rate                    : 128 Kbps
Channel(s)                  : 2 channels
Sampling rate               : 44.1 KHz
Frame rate                  : 38.281 fps (1152 spf)
Compression mode            : Lossy
Delay relative to video     : -100ms
Stream size                 : 66.9 MiB (9%)
Title                       : --=!!Choseme!!=--
Writing library             : LAME3.98.2

[img]http://s5.postimg.org/kha8u12mf/Screen_Shot.png[/img]

[img]http://s5.postimg.org/3pews4epz/1_1.png[/img]
[img]http://s5.postimg.org/cmzmph75z/1_2.png[/img]
[img]http://s5.postimg.org/gafdvjfd3/1_3.png[/img]
[img]http://s5.postimg.org/f31g3bp8n/1_4.png[/img]
[img]http://s5.postimg.org/4604ek2h3/1_5.png[/img]
[img]http://s5.postimg.org/ho70quemf/1_6.png[/img]
[img]http://s5.postimg.org/64bdqakcn/1_7.png[/img]

[color=red]More Screen Shot[/color]

[img]http://s5.postimg.org/ysobtimiv/Screen_Shot.jpg[/img]

[color=red]
Sample Included In Torrent Sample Size:9.90 MB

Respected To All Staff And Admin And All Uploader[/color]

[color=red]=============================================================================


Special Note:--- 
===================                                       ===================
                      ---=== Best Performance =--------

  * Recommended Player For Movie :- Download K Lite And Watch Movie
  * Vlc And Klite for Desktop User And MX Player For Android User
==============================================================================
[/color]

[img]http://s5.postimg.org/9xlzx3r7r/Choseme_without_ladyggg.jpg[/img]

[img]http://s5.postimg.org/b0phkip3b/choseme_dancing.png[/img]

[/center]
4KoY1j.png m706wqye.png t3p4jn.png LHAoNp.png j6bmW.png 1N2RXaJ9.png q3dizvxf.png ks8qmVe.jpg

Files list

- Shandra-The Jungle Girl (1999)(Lady Tarzen Jungle Love) DVDRIP Audio Hindi MP3 Audio Dubbed By --=!!Choseme!!=--.mkv File size : 710.82 MB
- Sample.mkv File size : 9.9 MB
- Screen Shot/1 (3).png File size : 347.21 KB
- Screen Shot/Screen Shot.jpg File size : 333.87 KB
- Screen Shot/1 (2).png File size : 248.08 KB
- Screen Shot/1 (6).png File size : 231.35 KB
- Screen Shot/1 (7).png File size : 214.72 KB
- Screen Shot/1 (5).png File size : 212.74 KB
- Screen Shot/1 (1).png File size : 197.45 KB
- Screen Shot/1 (4).png File size : 154.02 KB
- Poster.jpg File size : 89.15 KB
- Poster 2.jpg File size : 59.63 KB
- Info.Nfo File size : 6.07 KB
- Shandra-The Jungle Girl (1999)(Lady Tarzen Jungle Love) DVDRIP Audio Hindi MP3 Audio Dubbed By --=!!Choseme!!=--.mkv.txt File size : 4.22 KB
- Special Note.nfo File size : 2.24 KB

Disqus