Chat
Users Online
+ 14 Guests online in the last 24 hours.

Welcome to our newest member, Aclofova
Ads
Torrent name: Shanghai.Kiss.2007.BRRip.720p.x264.AAC-PRiSTiNE [P2PDL]
File size: 710.43 MB
Seeds: 18
Leechs: 0
Categories: Movies HD
Torrent hash: 216da91639128d31077dae8709d8246f5a167832
Social Share:
Uploader: VYTO
Verified torrent:
    - udp://tracker.coppersurfer.tk:6969/announce
    - udp://tracker.openbittorrent.com:80/announce
    - udp://tracker.istole.it:80/announce
    - udp://tracker.opentrackr.org:1337/announce
    - udp://9.rarbg.to:2710/announce
    - http://tracker.aletorrenty.pl:2710/announce
    - udp://9.rarbg.me:2710/announce
    - udp://torrent.gresille.org:80/announce
    - udp://tracker.sktorrent.net:6969/announce
    - http://tracker.ex.ua/announce
    - udp://p4p.arenabg.com:1337/announce
    - http://ipv4.tracker.harry.lu:80/announce
    - udp://tracker.leechers-paradise.org:6969/announce
    - udp://tracker.glotorrents.com:6969/announce
    - udp://tracker.blackunicorn.xyz:6969/announce
Download Shanghai.Kiss.2007.BRRip.720p.x264.AAC-PRiSTiNE [P2PDL]
Download .torrent   Magnet Link
Torrent detail

Shanghai.Kiss.2007.BRRip.720p.x264.AAC-PRiSTiNE [P2PDL]

Shanghai.Kiss.2007.BRRip.720p.x264.AAC-PRiSTiNE


Genre: Comedy, Drama, Romance
http://www.imdb.com/title/tt0469184/


Format                                   : MPEG-4
File size                                : 697 MiB
Duration                                 : 1h 45mn
Overall bit rate                         : 920 Kbps

Video
Format                                   : AVC
Bit rate                                 : 837 Kbps
Width                                    : 1 278 pixels
Height                                   : 720 pixels
Display aspect ratio                     : 16:9
Frame rate mode                          : Constant
Frame rate                               : 24.000 fps
Bit depth                                : 8 bits
Stream size                              : 634 MiB (91%)
Writing library                          : x264

Audio
Format                                   : AAC
Bit rate mode                            : Variable
Bit rate                                 : 79.9 Kbps
Channel(s)                               : 2 channels
Channel positions                        : Front: L R
Sampling rate                            : 44.1 KHz
Stream size                              : 60.5 MiB (9%)
Language                                 : English

Subtitle                                 : Yes (English)

Screen Shots: (Click to view)


4N6wO.png RqE7QB.png 2R3mb.png hNPE5.png zbxPMp.png FHP2s.png Gs1vuF0BE.png bf6Ee0.png nOsZYbgt.png

Files list

- Shanghai.Kiss.2007.BRRip.720p.x264.AAC-PRiSTiNE.mp4 File size : 696.69 MB
- Sample.mp4 File size : 13.63 MB
- Shanghai.Kiss.2007.BRRip.720p.x264.AAC-PRiSTiNE.srt File size : 73.2 KB
- VYTO.png File size : 39.3 KB
- Shanghai.Kiss.2007.BRRip.720p.x264.AAC-PRiSTiNE.nfo File size : 2.28 KB
- Torrent downloaded from demonoid.pw.txt File size : 46 B
- Torrent downloaded from p2pdl.com.txt File size : 33 B

Disqus