Chat
Users Online
+ 14 Guests online in the last 24 hours.

Welcome to our newest member, Aclofova
Ads
Torrent name: Diablo.2016.WEBRip.480p.x264.AAC-VYTO [P2PDL]
File size: 306.44 MB
Seeds: 483
Leechs: 408
Categories: Movies SD
Torrent hash: 2f8f7a20d26564ad7a3ba7e50b8e163cb1bad27b
Social Share:
Uploader: VYTO
Verified torrent:
    - udp://tracker.coppersurfer.tk:6969/announce
    - udp://tracker.openbittorrent.com:80/announce
    - udp://tracker.istole.it:80/announce
    - udp://tracker.opentrackr.org:1337/announce
    - udp://9.rarbg.to:2710/announce
    - http://tracker.aletorrenty.pl:2710/announce
    - udp://9.rarbg.me:2710/announce
    - udp://torrent.gresille.org:80/announce
    - udp://tracker.sktorrent.net:6969/announce
    - http://tracker.ex.ua/announce
    - udp://p4p.arenabg.com:1337/announce
    - http://ipv4.tracker.harry.lu:80/announce
    - udp://tracker.leechers-paradise.org:6969/announce
    - udp://tracker.glotorrents.com:6969/announce
    - udp://tracker.blackunicorn.xyz:6969/announce
Download Diablo.2016.WEBRip.480p.x264.AAC-VYTO [P2PDL]
Download .torrent   Magnet Link
Torrent detail

Diablo.2016.WEBRip.480p.x264.AAC-VYTO [P2PDL]

Diablo.2016.WEBRip.480p.x264.AAC-VYTO


Genre: Action, Adventure, Thriller
http://www.imdb.com/title/tt4076760/


Format                                   : MPEG-4
File size                                : 301 MiB
Duration                                 : 1h 23mn
Overall bit rate                         : 505 Kbps

Video
Format                                   : AVC
Bit rate                                 : 471 Kbps
Width                                    : 720 pixels
Height                                   : 304 pixels
Display aspect ratio                     : 2.35:1
Frame rate mode                          : Constant
Frame rate                               : 23.976 fps
Bit depth                                : 8 bits
Stream size                              : 280 MiB (93%)
Writing library                          : x264

Audio
Format                                   : AAC
Bit rate                                 : 32.0 Kbps
Channel(s)                               : 2 channels 
Channel positions                        : Front: L R 
Sampling rate                            : 48.0 KHz 
Stream size                              : 19.0 MiB (6%)
Language                                 : English

Subtitle                                 : Yes (English)

Screen Shots: (Click  to view)

YMIbJABa.png 2S4AIzM.png 0gn1jJqFk.png 9VwgxeU.png 3MHtJTBvSR.png axVBg.png 1TDGqQ4.png eWftH.png G0VTHK2.png

Files list

- Diablo.2016.WEBRip.480p.x264.AAC-VYTO.mp4 File size : 300.73 MB
- Sample.mp4 File size : 5.67 MB
- VYTO.png File size : 39.3 KB
- Diablo.2016.WEBRip.480p.x264.AAC-VYTO.srt File size : 4.38 KB
- Diablo.2016.WEBRip.480p.x264.AAC-VYTO.nfo File size : 2.23 KB
- Torrent downloaded from demonoid.pw.txt File size : 46 B
- Torrent downloaded from p2pdl.com.txt File size : 33 B

Disqus