Chat
Users Online
+ 16 Guests online in the last 24 hours.

Welcome to our newest member, CindyWardy
Ads
Torrent name: Maze.Runner.The.Scorch.Trials.2015.BRRip.720p.x264.AAC-PRiSTiNE [P2PDL.com]
File size: 857.6 MB
Seeds: 9
Leechs: 6
Categories: Movies HD
Torrent hash: 854d7a42ad62dbc2b61c64235884354e6d426660
Social Share:
Uploader: VYTO
Verified torrent:
    - udp://tracker.coppersurfer.tk:6969/announce
    - udp://tracker.openbittorrent.com:80/announce
    - udp://tracker.istole.it:80/announce
    - http://tracker.pow7.com/announce
    - udp://9.rarbg.com:2710/announce
    - http://tracker.aletorrenty.pl:2710/announce
    - udp://9.rarbg.me:2710/announce
    - http://10.rarbg.com:80/announce
    - udp://exodus.desync.com:6969/announce
    - udp://open.demonii.com:1337/announce
    - udp://tracker.publicbt.com:80/announce
    - http://ipv4.tracker.harry.lu:80/announce
    - udp://tracker.leechers-paradise.org:6969/announce
    - udp://tracker.glotorrents.com:6969/announce
    - udp://inferno.demonoid.ooo:3392/announce
Download Maze.Runner.The.Scorch.Trials.2015.BRRip.720p.x264.AAC-PRiSTiNE [P2PDL.com]
Download .torrent   Magnet Link
Torrent detail

Maze.Runner.The.Scorch.Trials.2015.BRRip.720p.x264.AAC-PRiSTiNE [P2PDL.com]

Maze.Runner.The.Scorch.Trials.2015.BRRip.720p.x264.AAC-PRiSTiNE


Genre: Action, Sci-Fi, Thriller
http://www.imdb.com/title/tt4046784/


General
Format                         : MPEG-4
File size                      : 851 MiB
Duration                       : 2h 11mn
Overall bit rate               : 904 Kbps

Video
Format                         : AVC
Bit rate                       : 837 Kbps
Width                          : 1 280 pixels
Height                         : 528 pixels
Display aspect ratio           : 2.40:1
Frame rate mode                : Constant
Frame rate                     : 23.976 fps
Bit depth                      : 8 bits
Stream size                    : 788 MiB (93%)
Writing library                : x264

Audio
Format                         : AAC
Bit rate mode                  : Variable
Bit rate                       : 63.9 Kbps
Channel(s)                     : 2 channels
Channel positions              : Front: L R
Sampling rate                  : 48.0 KHz
Stream size                    : 60.2 MiB (7%)
Language                       : English


Files list

- Maze.Runner.The.Scorch.Trials.2015.BRRip.720p.x264.AAC-PRiSTiNE.mp4 File size : 851.31 MB
- Sample.mp4 File size : 6.16 MB
- Maze.Runner.The.Scorch.Trials.2015.BRRip.720p.x264.AAC-PRiSTiNE.srt File size : 95.09 KB
- VYTO.png File size : 39.3 KB
- Maze.Runner.The.Scorch.Trials.2015.BRRip.720p.x264.AAC-PRiSTiNE.nfo File size : 2.08 KB
- Torrent downloaded from demonoid.pw.txt File size : 46 B
- Torrent downloaded from p2pdl.com.txt File size : 33 B

Disqus