Chat
Users Online
+ 16 Guests online in the last 24 hours.

Welcome to our newest member, CindyWardy
Ads
Torrent name: Breeders (1986) UNRATED WebDL HEVC-h.265 [Dual Audio] [Hindi 2.0 - English 2.0] By !!Choseme!!
File size: 346.84 MB
Seeds: 168
Leechs: 265
Categories: Movies SD
Torrent hash: 024ae5373585b7805dde1e38b4a06f07cd424096
Social Share:
Uploader: choseme
Verified torrent:
    - udp://9.rarbg.com:2710/announce
    - udp://9.rarbg.to:2710/announce
    - udp://glotorrents.pw:6969/announce
    - udp://tracker.opentrackr.org:1337/announce
    - udp://p4p.arenabg.ch:1337/announce
    - udp://glotorrents.pw:6969/announce
    - udp://tracker.glotorrents.com:6969/announce
    - udp://eddie4.nl:6969/announce
    - udp://tracker.leechers-paradise.org:6969/announce
    - udp://tracker.aletorrenty.pl:2710/announce
    - udp://tracker.pubt.net:2710/announce
    - udp://open.demonii.com:1337/announce
Download Breeders (1986) UNRATED WebDL HEVC-h.265 [Dual Audio] [Hindi 2.0 - English 2.0] By !!Choseme!!
Download .torrent   Magnet Link
Torrent detail

Breeders (1986) UNRATED WebDL HEVC-h.265 [Dual Audio] [Hindi 2.0 - English 2.0] By !!Choseme!!


Genres: Horror  Sci-Fi


General Info

Format                      : Matroska
Format version              : Version 4 / Version 2
File size                   : 337 MiB
Duration                    : 1h 17mn
Overall bit rate            : 609 Kbps
Encoded date                : UTC 2015-12-05 01:30:15
Writing application         : mkvmerge v8.5.2 ('Crosses') 64bit
Writing library             : libebml v1.3.3 + libmatroska v1.4.4
Movie Name                  : Breeders (1986) UNRATED WebDL xHEVC/h.265 [Dual Audio] [Hindi 2.0 - English 2.0] By !!Choseme!!

Video Info

Format                      : HEVC
Format/Info                 : High Efficiency Video Coding
Format profile              : [email protected]@Main
Codec ID                    : V_MPEGH/ISO/HEVC
Duration                    : 1h 17mn
Bit rate                    : 302 Kbps
Width                       : 1 280 pixels
Height                      : 688 pixels
Display aspect ratio        : 1.85:1
Frame rate mode             : Constant
Frame rate                  : 23.976 (23976/1000) fps
Color space                 : YUV
Chroma subsampling          : 4:2:0
Bit depth                   : 8 bits
Bits/(Pixel*Frame)          : 0.014
Stream size                 : 167 MiB (50%)
Title                       : Breeders (1986) UNRATED WebDL HEVC/h.265 [Dual Audio] [Hindi 2.0 - English 2.0] By !!Choseme!!
Writing library             : x265 1.6:[Windows][GCC 4.6.2][32 bit]
Language                    : English
Default                     : Yes
Forced                      : No

Audio Info

Audio #1

Format                      : AAC
Format/Info                 : Advanced Audio Codec
Format profile              : LC
Codec ID                    : A_AAC
Duration                    : 1h 17mn
Bit rate                    : 152 Kbps
Channel(s)                  : 2 channels
Channel positions           : Front: L R
Sampling rate               : 44.1 KHz
Frame rate                  : 43.066 fps (1024 spf)
Compression mode            : Lossy
Delay relative to video     : -23ms
Stream size                 : 84.2 MiB (25%)
Title                       : Choseme
Language                    : Hindi
Default                     : Yes
Forced                      : No

Audio #2

Format                      : AAC
Format/Info                 : Advanced Audio Codec
Format profile              : LC
Codec ID                    : A_AAC
Duration                    : 1h 17mn
Bit rate                    : 152 Kbps
Channel(s)                  : 2 channels
Channel positions           : Front: L R
Sampling rate               : 44.1 KHz
Frame rate                  : 43.066 fps (1024 spf)
Compression mode            : Lossy
Delay relative to video     : -2ms
Stream size                 : 84.2 MiB (25%)
Title                       : Choseme
Language                    : English
Default                     : No
Forced                      : No

===========

Sample Included In Torrent. Check It First

Screen Shots:

Ns4XWo.png KB1brQF.png c2iUdu.png tz2rZjhL.png QqPcLM.png ysZg9.jpg



Files list

- Breeders (1986) UNRATED WebDL HEVC-h.265 [Dual Audio] [Hindi 2.0 - English 2.0] By !!Choseme!!.mkv File size : 337.41 MB
- Sample.mkv File size : 7.04 MB
- Screen Shot/1 (2).png File size : 648.77 KB
- Screen Shot/1 (3).png File size : 484.52 KB
- Screen Shot/1 (4).png File size : 458.58 KB
- Screen Shot/1 (1).png File size : 395.08 KB
- Screen Shot/1 (5).png File size : 262.84 KB
- Screen Shot/Screen Shot.jpg File size : 181.05 KB
- Breeders (1986) UNRATED WebDL HEVC-h.265 [Dual Audio] [Hindi 2.0 - English 2.0] By !!Choseme!!.mkv.nfo File size : 7.75 KB
- Breeders (1986) UNRATED WebDL HEVC-h.265 [Dual Audio] [Hindi 2.0 - English 2.0] By !!Choseme!!.mkv.txt File size : 5.52 KB

Disqus