Chat
Users Online
+ 10 Guests online in the last 24 hours.

Welcome to our newest member, YespasBity
Ads
Torrent name: Cinderella.2015.BRRip.480p.x264.AAC-VYTO [P2PDL]
File size: 357.73 MB
Seeds: 9
Leechs: 10
Categories: Movies SD
Torrent hash: cb87b8fafc32d204b5e2fcc3257043fcf74389e1
Social Share:
Uploader: VYTO
Verified torrent:
    - udp://tracker.coppersurfer.tk:6969/announce
    - udp://tracker.openbittorrent.com:80/announce
    - udp://tracker.istole.it:80/announce
    - http://tracker.pow7.com/announce
    - udp://9.rarbg.com:2710/announce
    - http://tracker.aletorrenty.pl:2710/announce
    - udp://9.rarbg.me:2710/announce
    - http://10.rarbg.com:80/announce
    - udp://exodus.desync.com:6969/announce
    - udp://open.demonii.com:1337/announce
    - udp://inferno.demonoid.ph:3389/announce
    - udp://tracker.publicbt.com:80/announce
    - http://ipv4.tracker.harry.lu:80/announce
    - udp://tracker.leechers-paradise.org:6969/announce
    - udp://inferno.demonoid.ooo:3392/announce
Download Cinderella.2015.BRRip.480p.x264.AAC-VYTO [P2PDL]
Download .torrent   Magnet Link
Torrent detail

Cinderella.2015.BRRip.480p.x264.AAC-VYTO [P2PDL]

Cinderella.2015.BRRip.480p.x264.AAC-VYTO


Genre: Drama, Family, Fantasy
IMDb: http://www.imdb.com/title/tt1661199/

Format                         : MPEG-4
File size                      : 352 MiB
Duration                       : 1h 45mn
Overall bit rate               : 467 Kbps

Video
Format                         : AVC
Bit rate                       : 432 Kbps
Width                          : 720 pixels
Height                         : 304 pixels
Display aspect ratio           : 2.35:1
Frame rate mode                : Constant
Frame rate                     : 23.976 fps
Bit depth                      : 8 bits
Stream size                    : 325 MiB (92%)
Writing library                : x264 core 146 r2538 121396c

Audio
Format                         : AAC
Bit rate mode                  : Variable
Bit rate                       : 32.0 Kbps
Channel(s)                     : 2 channels
Channel positions              : Front: L R
Sampling rate                  : 48.0 KHz
Stream size                    : 24.1 MiB (7%)
Language                       : English

Subtitle                    : Yes(English)
Source                      : 720p.BluRay.x264-SPARKS

http://someimage.com/1AKQuED
http://someimage.com/FdJ7nad
http://someimage.com/RpOnfRp
http://someimage.com/Ko0StmZ
http://someimage.com/QxRT5Be
http://someimage.com/ciGALZN
http://someimage.com/0t4b14s
http://someimage.com/jhvperd
http://someimage.com/Lni4yF6

Files list

- Cinderella.2015.BRRip.480p.x264.AAC-VYTO.mp4 File size : 351.89 MB
- Cinderella.2015.BRRip.480p.x264.AAC-VYTO.nfo File size : 3.88 KB
- Cinderella.2015.BRRip.480p.x264.AAC-VYTO.srt File size : 95.67 KB
- Sample.mp4 File size : 5.71 MB
- Torrent downloaded from Demonoid.ooo.txt File size : 48 B
- Torrent downloaded from P2PDL.com.txt File size : 33 B
- VYTO.png File size : 39.3 KB

Disqus