Chat
Users Online
+ 10 Guests online in the last 24 hours.

Welcome to our newest member, Nihkrrbpptr
Ads
Torrent name: Channo Kamli Yaar Di (2016) 1CD DvDRip XviD MP3 2.0 -DDR
File size: 724.67 MB
Seeds: 360
Leechs: 359
Categories: Movies SD
Torrent hash: f3ee1426ac5000fbdbb342daf07a486635b86bad
Social Share:
Uploader: ibot
Verified torrent:
    - udp://9.rarbg.me:2710/announce
    - udp://tracker.coppersurfer.tk:6969/announce
    - udp://thetracker.org:80/announce
    - udp://tracker.coppersurfer.tk:6969
    - udp://tracker.leechers-paradise.org:6969/announce
    - udp://eddie4.nl:6969/announce
    - udp://zer0day.ch:1337/announce
    - udp://tracker.sktorrent.net:6969/announce
    - udp://9.rarbg.to:2710/announce
    - udp://torrent.gresille.org:80/announce
    - udp://tracker.aletorrenty.pl:2710/announce
    - udp://tracker.piratepublic.com:1337/announce
    - udp://tracker.opentrackr.org:1337/announce
    - udp://explodie.org:6969/announce
    - udp://p4p.arenabg.ch:1337/announce
Download Channo Kamli Yaar Di (2016) 1CD DvDRip XviD MP3 2.0 -DDR
Download .torrent   Magnet Link
Torrent detail

Channo Kamli Yaar Di (2016) 1CD DvDRip XviD MP3 2.0 -DDR

 PollywooD MoviE -
**- Channo Kamli Yaar Di -**
- (2016) -
** 1CD / DvDrip / XviD / MP3 Stereo **



channo.md.jpg

~* SCREENSHOTS *~

CHYD_xvid.1CD016827.png
CHYD_xvid.1CD033882.png
CHYD_xvid.1CD044136.png
CHYD_xvid.1CD045907.png
CHYD_xvid.1CD061387.png
CHYD_xvid.1CD065975.png
CHYD_xvid.1CD067680.png
CHYD_xvid.1CD136135.png
CHYD_xvid.1CD152684.png
CHYD_xvid.1CD153691.png

[ Specs ]
General
Source = DVD9 @ DDR

Format : XviD /AVI
File size : 721 MiB
Duration : 1h 57mn
Overall bit rate mode : Variable
Overall bit rate : 861 Kbps

Video
Format : MPEG-4 Visual
Format profile : Advanced [email protected]
Format settings, Matrix : Custom
Codec ID : XVID
Bit rate : 727 Kbps
Width : 640 pixels
Height : 272 pixels
Display aspect ratio : 2.35:1
Frame rate : 23.976 (24000/1001) fps
Color space : YUV
Chroma subsampling : 4:2:0
Bit depth : 8 bits
Scan type : Progressive
Compression mode : Lossy
Stream size : 609 MiB (85%)

Audio
Format : MPEG Audio
Codec ID/Hint : MP3
Duration : 1h 57mn
Bit rate mode : Variable
Bit rate : 121 Kbps
Nominal bit rate : 128 Kbps
Channel(s) : 2 channels
Sampling rate : 48.0 KHz
Compression mode : Lossy
Stream size : 101 MiB (14%)

Chapters: N/A 
Sample : Included 

A DDR Exclusive Release...!

Files list

- Channo Kamli Yaar Di (2016) 1CD DvDRip XviD MP3 2.0 -DDR.avi File size : 720.81 MB
- (sample) Channo Kamli Yaar Di (2016) 1CD DvDRip XviD MP3 2.0 -DDR.avi File size : 3.86 MB
- A DDR Exclusive Release.txt File size : 28 B

Disqus